  0
SECTION
  2
HEADER
  9
$ACADVER
  1
AC1032
  9
$ACADMAINTVER
 90
      130
  9
$DWGCODEPAGE
  3
ANSI_1252
  9
$LASTSAVEDBY
  1
jonny
  9
$REQUIREDVERSIONS
160
                 0
  9
$INSBASE
 10
0.0
 20
0.0
 30
0.0
  9
$EXTMIN
 10
13.57049564920656
 20
13.87820438281424
 30
-0.5004882236249771
  9
$EXTMAX
 10
24.34625248371886
 20
24.01789859800821
 30
0.0000000349246037
  9
$LIMMIN
 10
0.0
 20
0.0
  9
$LIMMAX
 10
12.0
 20
9.0
  9
$ORTHOMODE
 70
     0
  9
$REGENMODE
 70
     1
  9
$FILLMODE
 70
     1
  9
$QTEXTMODE
 70
     0
  9
$MIRRTEXT
 70
     0
  9
$LTSCALE
 40
1.0
  9
$ATTMODE
 70
     1
  9
$TEXTSIZE
 40
0.2
  9
$TRACEWID
 40
0.05
  9
$TEXTSTYLE
  7
STANDARD
  9
$CLAYER
  8
0
  9
$CELTYPE
  6
Continuous
  9
$CECOLOR
 62
   256
  9
$CELTSCALE
 40
1.0
  9
$DISPSILH
 70
     0
  9
$DIMSCALE
 40
1.0
  9
$DIMASZ
 40
0.18
  9
$DIMEXO
 40
0.0625
  9
$DIMDLI
 40
0.38
  9
$DIMRND
 40
0.0
  9
$DIMDLE
 40
0.0
  9
$DIMEXE
 40
0.18
  9
$DIMTP
 40
0.0
  9
$DIMTM
 40
0.0
  9
$DIMTXT
 40
0.18
  9
$DIMCEN
 40
0.09
  9
$DIMTSZ
 40
0.0
  9
$DIMTOL
 70
     0
  9
$DIMLIM
 70
     0
  9
$DIMTIH
 70
     1
  9
$DIMTOH
 70
     1
  9
$DIMSE1
 70
     0
  9
$DIMSE2
 70
     0
  9
$DIMTAD
 70
     0
  9
$DIMZIN
 70
     0
  9
$DIMBLK
  1

  9
$DIMASO
 70
     1
  9
$DIMSHO
 70
     1
  9
$DIMPOST
  1

  9
$DIMAPOST
  1

  9
$DIMALT
 70
     0
  9
$DIMALTD
 70
     2
  9
$DIMALTF
 40
25.4
  9
$DIMLFAC
 40
1.0
  9
$DIMTOFL
 70
     0
  9
$DIMTVP
 40
0.0
  9
$DIMTIX
 70
     0
  9
$DIMSOXD
 70
     0
  9
$DIMSAH
 70
     0
  9
$DIMBLK1
  1

  9
$DIMBLK2
  1

  9
$DIMSTYLE
  2
Standard
  9
$DIMCLRD
 70
     0
  9
$DIMCLRE
 70
     0
  9
$DIMCLRT
 70
     0
  9
$DIMTFAC
 40
1.0
  9
$DIMGAP
 40
0.09
  9
$DIMJUST
 70
     0
  9
$DIMSD1
 70
     0
  9
$DIMSD2
 70
     0
  9
$DIMTOLJ
 70
     1
  9
$DIMTZIN
 70
     0
  9
$DIMALTZ
 70
     0
  9
$DIMALTTZ
 70
     0
  9
$DIMUPT
 70
     0
  9
$DIMDEC
 70
     4
  9
$DIMTDEC
 70
     4
  9
$DIMALTU
 70
     2
  9
$DIMALTTD
 70
     2
  9
$DIMTXSTY
  7
STANDARD
  9
$DIMAUNIT
 70
     0
  9
$DIMADEC
 70
     0
  9
$DIMALTRND
 40
0.0
  9
$DIMAZIN
 70
     0
  9
$DIMDSEP
 70
    46
  9
$DIMATFIT
 70
     3
  9
$DIMFRAC
 70
     0
  9
$DIMLDRBLK
  1

  9
$DIMLUNIT
 70
     2
  9
$DIMLWD
 70
    -2
  9
$DIMLWE
 70
    -2
  9
$DIMTMOVE
 70
     0
  9
$DIMFXL
 40
1.0
  9
$DIMFXLON
 70
     0
  9
$DIMJOGANG
 40
0.7853981633974483
  9
$DIMTFILL
 70
     0
  9
$DIMTFILLCLR
 70
     0
  9
$DIMARCSYM
 70
     0
  9
$DIMLTYPE
  6

  9
$DIMLTEX1
  6

  9
$DIMLTEX2
  6

  9
$DIMTXTDIRECTION
 70
     0
  9
$LUNITS
 70
     2
  9
$LUPREC
 70
     4
  9
$SKETCHINC
 40
0.1
  9
$FILLETRAD
 40
0.0
  9
$AUNITS
 70
     0
  9
$AUPREC
 70
     0
  9
$MENU
  1
.
  9
$ELEVATION
 40
0.0
  9
$PELEVATION
 40
0.0
  9
$THICKNESS
 40
0.0
  9
$LIMCHECK
 70
     0
  9
$CHAMFERA
 40
0.0
  9
$CHAMFERB
 40
0.0
  9
$CHAMFERC
 40
0.0
  9
$CHAMFERD
 40
0.0
  9
$SKPOLY
 70
     0
  9
$TDCREATE
 40
2459814.678368056
  9
$TDUCREATE
 40
2459814.970034722
  9
$TDUPDATE
 40
2459814.691018519
  9
$TDUUPDATE
 40
2459814.982685185
  9
$TDINDWG
 40
0.0126504630
  9
$TDUSRTIMER
 40
0.0126504630
  9
$USRTIMER
 70
     1
  9
$ANGBASE
 50
0.0
  9
$ANGDIR
 70
     0
  9
$PDMODE
 70
     0
  9
$PDSIZE
 40
0.0
  9
$PLINEWID
 40
0.0
  9
$SPLFRAME
 70
     0
  9
$SPLINETYPE
 70
     6
  9
$SPLINESEGS
 70
     8
  9
$HANDSEED
  5
10381
  9
$SURFTAB1
 70
     6
  9
$SURFTAB2
 70
     6
  9
$SURFTYPE
 70
     6
  9
$SURFU
 70
     6
  9
$SURFV
 70
     6
  9
$UCSBASE
  2

  9
$UCSNAME
  2

  9
$UCSORG
 10
0.0
 20
0.0
 30
0.0
  9
$UCSXDIR
 10
1.0
 20
0.0
 30
0.0
  9
$UCSYDIR
 10
0.0
 20
1.0
 30
0.0
  9
$UCSORTHOREF
  2

  9
$UCSORTHOVIEW
 70
     0
  9
$UCSORGTOP
 10
0.0
 20
0.0
 30
0.0
  9
$UCSORGBOTTOM
 10
0.0
 20
0.0
 30
0.0
  9
$UCSORGLEFT
 10
0.0
 20
0.0
 30
0.0
  9
$UCSORGRIGHT
 10
0.0
 20
0.0
 30
0.0
  9
$UCSORGFRONT
 10
0.0
 20
0.0
 30
0.0
  9
$UCSORGBACK
 10
0.0
 20
0.0
 30
0.0
  9
$PUCSBASE
  2

  9
$PUCSNAME
  2

  9
$PUCSORG
 10
0.0
 20
0.0
 30
0.0
  9
$PUCSXDIR
 10
1.0
 20
0.0
 30
0.0
  9
$PUCSYDIR
 10
0.0
 20
1.0
 30
0.0
  9
$PUCSORTHOREF
  2

  9
$PUCSORTHOVIEW
 70
     0
  9
$PUCSORGTOP
 10
0.0
 20
0.0
 30
0.0
  9
$PUCSORGBOTTOM
 10
0.0
 20
0.0
 30
0.0
  9
$PUCSORGLEFT
 10
0.0
 20
0.0
 30
0.0
  9
$PUCSORGRIGHT
 10
0.0
 20
0.0
 30
0.0
  9
$PUCSORGFRONT
 10
0.0
 20
0.0
 30
0.0
  9
$PUCSORGBACK
 10
0.0
 20
0.0
 30
0.0
  9
$USERI1
 70
     0
  9
$USERI2
 70
     0
  9
$USERI3
 70
     0
  9
$USERI4
 70
     0
  9
$USERI5
 70
     0
  9
$USERR1
 40
0.0
  9
$USERR2
 40
0.0
  9
$USERR3
 40
0.0
  9
$USERR4
 40
0.0
  9
$USERR5
 40
0.0
  9
$WORLDVIEW
 70
     1
  9
$SHADEDGE
 70
     3
  9
$SHADEDIF
 70
    70
  9
$TILEMODE
 70
     1
  9
$MAXACTVP
 70
    64
  9
$PINSBASE
 10
0.0
 20
0.0
 30
0.0
  9
$PLIMCHECK
 70
     0
  9
$PEXTMIN
 10
1.000000000000000E+20
 20
1.000000000000000E+20
 30
1.000000000000000E+20
  9
$PEXTMAX
 10
-1.000000000000000E+20
 20
-1.000000000000000E+20
 30
-1.000000000000000E+20
  9
$PLIMMIN
 10
0.0
 20
0.0
  9
$PLIMMAX
 10
12.0
 20
9.0
  9
$UNITMODE
 70
     0
  9
$VISRETAIN
 70
     1
  9
$PLINEGEN
 70
     0
  9
$PSLTSCALE
 70
     1
  9
$TREEDEPTH
 70
  3020
  9
$CMLSTYLE
  2
Standard
  9
$CMLJUST
 70
     0
  9
$CMLSCALE
 40
1.0
  9
$PROXYGRAPHICS
 70
     1
  9
$MEASUREMENT
 70
     0
  9
$CELWEIGHT
370
    -1
  9
$ENDCAPS
280
     0
  9
$JOINSTYLE
280
     0
  9
$LWDISPLAY
290
     0
  9
$INSUNITS
 70
     1
  9
$HYPERLINKBASE
  1

  9
$STYLESHEET
  1
Grayscale.ctb
  9
$XEDIT
290
     1
  9
$CEPSNTYPE
380
     0
  9
$PSTYLEMODE
290
     1
  9
$FINGERPRINTGUID
  2
{E305E17C-860D-0E4E-BA13-B7465F6BFCD0}
  9
$VERSIONGUID
  2
{4E66F83A-C0F0-124B-9B21-46B0E2EEAE57}
  9
$EXTNAMES
290
     1
  9
$PSVPSCALE
 40
0.0
  9
$OLESTARTUP
290
     0
  9
$SORTENTS
280
   127
  9
$INDEXCTL
280
     0
  9
$HIDETEXT
280
     0
  9
$XCLIPFRAME
280
     2
  9
$HALOGAP
280
     0
  9
$OBSCOLOR
 70
   257
  9
$OBSLTYPE
280
     0
  9
$INTERSECTIONDISPLAY
280
     0
  9
$INTERSECTIONCOLOR
 70
   257
  9
$DIMASSOC
280
     1
  9
$PROJECTNAME
  1

  9
$CAMERADISPLAY
290
     0
  9
$LENSLENGTH
 40
50.0
  9
$CAMERAHEIGHT
 40
0.0
  9
$STEPSPERSEC
 40
2.0
  9
$STEPSIZE
 40
6.0
  9
$3DDWFPREC
 40
2.0
  9
$PSOLWIDTH
 40
0.25
  9
$PSOLHEIGHT
 40
4.0
  9
$LOFTANG1
 40
1.570796326794896
  9
$LOFTANG2
 40
1.570796326794896
  9
$LOFTMAG1
 40
0.0
  9
$LOFTMAG2
 40
0.0
  9
$LOFTPARAM
 70
     7
  9
$LOFTNORMALS
280
     1
  9
$LATITUDE
 40
37.795
  9
$LONGITUDE
 40
-122.394
  9
$NORTHDIRECTION
 40
0.0
  9
$TIMEZONE
 70
 -8000
  9
$LIGHTGLYPHDISPLAY
280
     1
  9
$TILEMODELIGHTSYNCH
280
     1
  9
$CMATERIAL
347
10005
  9
$SOLIDHIST
280
     0
  9
$SHOWHIST
280
     1
  9
$DWFFRAME
280
     2
  9
$DGNFRAME
280
     0
  9
$REALWORLDSCALE
290
     1
  9
$INTERFERECOLOR
 62
     1
  9
$INTERFEREOBJVS
345
10027
  9
$INTERFEREVPVS
346
10024
  9
$CSHADOW
280
     0
  9
$SHADOWPLANELOCATION
 40
0.0
  0
ENDSEC
  0
SECTION
  2
CLASSES
  0
CLASS
  1
ACDBDICTIONARYWDFLT
  2
AcDbDictionaryWithDefault
  3
ObjectDBX Classes
 90
        0
 91
        1
280
     0
281
     0
  0
CLASS
  1
MATERIAL
  2
AcDbMaterial
  3
ObjectDBX Classes
 90
     1153
 91
        3
280
     0
281
     0
  0
CLASS
  1
VISUALSTYLE
  2
AcDbVisualStyle
  3
ObjectDBX Classes
 90
     4095
 91
       24
280
     0
281
     0
  0
CLASS
  1
TABLESTYLE
  2
AcDbTableStyle
  3
ObjectDBX Classes
 90
     4095
 91
        1
280
     0
281
     0
  0
CLASS
  1
SCALE
  2
AcDbScale
  3
ObjectDBX Classes
 90
     1153
 91
       17
280
     0
281
     0
  0
CLASS
  1
MLEADERSTYLE
  2
AcDbMLeaderStyle
  3
ACDB_MLEADERSTYLE_CLASS
 90
     4095
 91
        1
280
     0
281
     0
  0
CLASS
  1
ACDBSECTIONVIEWSTYLE
  2
AcDbSectionViewStyle
  3
ObjectDBX Classes
 90
     1025
 91
        1
280
     0
281
     0
  0
CLASS
  1
ACDBDETAILVIEWSTYLE
  2
AcDbDetailViewStyle
  3
ObjectDBX Classes
 90
     1025
 91
        1
280
     0
281
     0
  0
CLASS
  1
DICTIONARYVAR
  2
AcDbDictionaryVar
  3
ObjectDBX Classes
 90
        0
 91
       27
280
     0
281
     0
  0
CLASS
  1
RASTERVARIABLES
  2
AcDbRasterVariables
  3
ISM
 90
        0
 91
        1
280
     0
281
     0
  0
CLASS
  1
CELLSTYLEMAP
  2
AcDbCellStyleMap
  3
ObjectDBX Classes
 90
     1152
 91
        1
280
     0
281
     0
  0
ENDSEC
  0
SECTION
  2
TABLES
  0
TABLE
  2
VPORT
  5
8
330
0
100
AcDbSymbolTable
 70
     1
  0
VPORT
  5
10059
330
8
100
AcDbSymbolTableRecord
100
AcDbViewportTableRecord
  2
*Active
 70
     0
 10
0.0
 20
0.0
 11
1.0
 21
1.0
 12
18.5491931439672
 22
19.23282298661549
 13
0.0
 23
0.0
 14
1.0
 24
1.0
 15
0.0
 25
0.0
 16
0.0
 26
0.0
 36
1.0
 17
0.0
 27
0.0
 37
0.0
 40
15.96991494639934
 41
1.369565217391304
 42
50.0
 43
0.0
 44
0.0
 50
0.0
 51
0.0
 71
     0
 72
  1000
 73
     1
 74
     3
 75
     0
 76
     0
 77
     0
 78
     0
281
     0
 65
     1
110
0.0
120
0.0
130
0.0
111
1.0
121
0.0
131
0.0
112
0.0
122
1.0
132
0.0
 79
     0
146
0.0
348
10023
 60
     3
 61
     5
292
     1
282
     1
141
0.0
142
0.0
 63
   250
421
  3355443
1001
ACAD_NAV_VCDISPLAY
1070
     1
  0
ENDTAB
  0
TABLE
  2
LTYPE
  5
5
330
0
100
AcDbSymbolTable
 70
     2
  0
LTYPE
  5
14
330
5
100
AcDbSymbolTableRecord
100
AcDbLinetypeTableRecord
  2
BYBLOCK
 70
     0
  3

 72
    65
 73
     0
 40
0.0
  0
LTYPE
  5
15
330
5
100
AcDbSymbolTableRecord
100
AcDbLinetypeTableRecord
  2
BYLAYER
 70
     0
  3

 72
    65
 73
     0
 40
0.0
  0
LTYPE
  5
10001
330
5
100
AcDbSymbolTableRecord
100
AcDbLinetypeTableRecord
  2
Continuous
 70
     0
  3
Solid line
 72
    65
 73
     0
 40
0.0
  0
ENDTAB
  0
TABLE
  2
LAYER
  5
2
102
{ACAD_XDICTIONARY
360
102A9
102
}
330
0
100
AcDbSymbolTable
 70
     2
  0
LAYER
  5
50
102
{ACAD_XDICTIONARY
360
102A4
102
}
330
2
100
AcDbSymbolTableRecord
100
AcDbLayerTableRecord
  2
0
 70
     0
 62
     7
  6
Continuous
370
    -3
390
10003
347
10015
348
0
  0
LAYER
  5
1005C
330
2
100
AcDbSymbolTableRecord
100
AcDbLayerTableRecord
  2
Defpoints
 70
     0
 62
     7
  6
Continuous
290
     0
370
    -3
390
10003
347
10015
348
0
  0
ENDTAB
  0
TABLE
  2
STYLE
  5
3
330
0
100
AcDbSymbolTable
 70
     1
  0
STYLE
  5
11
330
3
100
AcDbSymbolTableRecord
100
AcDbTextStyleTableRecord
  2
STANDARD
 70
     0
 40
0.0
 41
1.0
 50
0.0
 71
     0
 42
0.2
  3

  4

  0
ENDTAB
  0
TABLE
  2
VIEW
  5
6
330
0
100
AcDbSymbolTable
 70
    11
  0
ENDTAB
  0
TABLE
  2
UCS
  5
7
330
0
100
AcDbSymbolTable
 70
     0
  0
ENDTAB
  0
TABLE
  2
APPID
  5
9
330
0
100
AcDbSymbolTable
 70
     5
  0
APPID
  5
12
330
9
100
AcDbSymbolTableRecord
100
AcDbRegAppTableRecord
  2
ACAD
 70
     0
  0
APPID
  5
10058
330
9
100
AcDbSymbolTableRecord
100
AcDbRegAppTableRecord
  2
ACAD_NAV_VCDISPLAY
 70
     0
  0
APPID
  5
100DC
330
9
100
AcDbSymbolTableRecord
100
AcDbRegAppTableRecord
  2
AcadAnnoMonitorAlertIconDisabled
 70
     0
  0
APPID
  5
100DD
330
9
100
AcDbSymbolTableRecord
100
AcDbRegAppTableRecord
  2
ACAD_EXEMPT_FROM_CAD_STANDARDS
 70
     0
  0
APPID
  5
102B9
330
9
100
AcDbSymbolTableRecord
100
AcDbRegAppTableRecord
  2
ACAD_PSEXT
 70
     0
  0
ENDTAB
  0
TABLE
  2
DIMSTYLE
  5
A
330
0
100
AcDbSymbolTable
 70
     1
100
AcDbDimStyleTable
 71
     1
340
10053
  0
DIMSTYLE
105
10053
102
{ACAD_REACTORS
330
10107
330
1011F
330
1013C
330
10159
330
10184
330
10192
330
101A0
330
101AE
330
101C8
330
101D7
330
101E5
102
}
330
A
100
AcDbSymbolTableRecord
100
AcDbDimStyleTableRecord
  2
Standard
 70
     0
340
11
  0
ENDTAB
  0
TABLE
  2
BLOCK_RECORD
  5
1
330
0
100
AcDbSymbolTable
 70
    12
  0
BLOCK_RECORD
  5
1F
330
1
100
AcDbSymbolTableRecord
100
AcDbBlockTableRecord
  2
*MODEL_SPACE
340
10055
 70
     0
280
     1
281
     0
  0
BLOCK_RECORD
  5
1B
330
1
100
AcDbSymbolTableRecord
100
AcDbBlockTableRecord
  2
*PAPER_SPACE
340
10056
 70
     0
280
     1
281
     0
  0
BLOCK_RECORD
  5
1005D
330
1
100
AcDbSymbolTableRecord
100
AcDbBlockTableRecord
  2
*D0
340
0
 70
     0
280
     1
281
     0
  0
BLOCK_RECORD
  5
10108
330
1
100
AcDbSymbolTableRecord
100
AcDbBlockTableRecord
  2
*D1
340
0
 70
     0
280
     1
281
     0
  0
BLOCK_RECORD
  5
10120
330
1
100
AcDbSymbolTableRecord
100
AcDbBlockTableRecord
  2
*D2
340
0
 70
     0
280
     1
281
     0
  0
BLOCK_RECORD
  5
1013D
330
1
100
AcDbSymbolTableRecord
100
AcDbBlockTableRecord
  2
*D3
340
0
 70
     0
280
     1
281
     0
  0
BLOCK_RECORD
  5
1015A
330
1
100
AcDbSymbolTableRecord
100
AcDbBlockTableRecord
  2
*D4
340
0
 70
     0
280
     1
281
     0
  0
BLOCK_RECORD
  5
10185
330
1
100
AcDbSymbolTableRecord
100
AcDbBlockTableRecord
  2
*D5
340
0
 70
     0
280
     1
281
     0
  0
BLOCK_RECORD
  5
10193
330
1
100
AcDbSymbolTableRecord
100
AcDbBlockTableRecord
  2
*D6
340
0
 70
     0
280
     1
281
     0
  0
BLOCK_RECORD
  5
101A1
330
1
100
AcDbSymbolTableRecord
100
AcDbBlockTableRecord
  2
*D7
340
0
 70
     0
280
     1
281
     0
  0
BLOCK_RECORD
  5
101AF
330
1
100
AcDbSymbolTableRecord
100
AcDbBlockTableRecord
  2
*D8
340
0
 70
     0
280
     1
281
     0
  0
BLOCK_RECORD
  5
101C9
330
1
100
AcDbSymbolTableRecord
100
AcDbBlockTableRecord
  2
*D9
340
0
 70
     0
280
     1
281
     0
  0
BLOCK_RECORD
  5
101D8
330
1
100
AcDbSymbolTableRecord
100
AcDbBlockTableRecord
  2
*D10
340
0
 70
     0
280
     1
281
     0
  0
BLOCK_RECORD
  5
101E6
330
1
100
AcDbSymbolTableRecord
100
AcDbBlockTableRecord
  2
*D11
340
0
 70
     0
280
     1
281
     0
  0
ENDTAB
  0
ENDSEC
  0
SECTION
  2
BLOCKS
  0
BLOCK
  5
20
330
1F
100
AcDbEntity
  8
0
100
AcDbBlockBegin
  2
*MODEL_SPACE
 70
     0
 10
0.0
 20
0.0
 30
0.0
  3
*MODEL_SPACE
  1

  0
ENDBLK
  5
21
330
1F
100
AcDbEntity
  8
0
100
AcDbBlockEnd
  0
BLOCK
  5
1C
330
1B
100
AcDbEntity
 67
     1
  8
0
100
AcDbBlockBegin
  2
*PAPER_SPACE
 70
     0
 10
0.0
 20
0.0
 30
0.0
  3
*PAPER_SPACE
  1

  0
ENDBLK
  5
1D
330
1B
100
AcDbEntity
 67
     1
  8
0
100
AcDbBlockEnd
  0
BLOCK
  5
1005E
330
1005D
100
AcDbEntity
  8
0
100
AcDbBlockBegin
  2
*D0
 70
     1
 10
0.0
 20
0.0
 30
0.0
  3
*D0
  1

  0
LINE
  5
100FD
330
1005D
100
AcDbEntity
  8
0
  6
Continuous
 62
     0
440
 16777216
370
    -2
100
AcDbLine
 10
22.96875
 20
22.96825
 30
0.0
 11
22.96875
 21
23.71922078829959
 31
0.0
  0
LINE
  5
100FE
330
1005D
100
AcDbEntity
  8
0
  6
Continuous
 62
     0
440
 16777216
370
    -2
100
AcDbLine
 10
15.03125
 20
22.96825
 30
0.0
 11
15.03125
 21
23.71922078829959
 31
0.0
  0
LINE
  5
100FF
330
1005D
100
AcDbEntity
  8
0
  6
Continuous
 62
     0
440
 16777216
370
    -2
100
AcDbLine
 10
22.78875
 20
23.53922078829959
 30
0.0
 11
19.46356753069576
 21
23.53922078829959
 31
0.0
  0
LINE
  5
10100
330
1005D
100
AcDbEntity
  8
0
  6
Continuous
 62
     0
440
 16777216
370
    -2
100
AcDbLine
 10
15.21125
 20
23.53922078829959
 30
0.0
 11
18.53643246930422
 21
23.53922078829959
 31
0.0
  0
SOLID
  5
10101
330
1005D
100
AcDbEntity
  8
0
  6
Continuous
 62
     0
440
 16777216
100
AcDbTrace
 10
22.78875
 20
23.56922078829959
 30
0.0
 11
22.78875
 21
23.50922078829959
 31
0.0
 12
22.96875
 22
23.53922078829959
 32
0.0
 13
22.96875
 23
23.53922078829959
 33
0.0
  0
SOLID
  5
10102
330
1005D
100
AcDbEntity
  8
0
  6
Continuous
 62
     0
440
 16777216
100
AcDbTrace
 10
15.21125
 20
23.56922078829959
 30
0.0
 11
15.21125
 21
23.50922078829959
 31
0.0
 12
15.03125
 22
23.53922078829959
 32
0.0
 13
15.03125
 23
23.53922078829959
 33
0.0
  0
MTEXT
  5
10103
330
1005D
100
AcDbEntity
  8
0
  6
Continuous
 62
     0
440
 16777216
100
AcDbMText
 10
19.0
 20
23.53922078829959
 30
0.0
 40
0.18
 41
0.0
 46
0.0
 71
     5
 72
     1
  1
\A1;{\fArial|b0|i0|c0|p0;7.9375}
 73
     1
 44
1.0
  0
POINT
  5
10104
330
1005D
100
AcDbEntity
  8
Defpoints
  6
Continuous
 62
     0
440
 16777216
100
AcDbPoint
 10
22.96875
 20
22.90575
 30
-0.5
  0
POINT
  5
10105
330
1005D
100
AcDbEntity
  8
Defpoints
  6
Continuous
 62
     0
440
 16777216
100
AcDbPoint
 10
15.03125
 20
22.90575
 30
-0.5
  0
POINT
  5
10106
330
1005D
100
AcDbEntity
  8
Defpoints
  6
Continuous
 62
     0
440
 16777216
100
AcDbPoint
 10
15.03125
 20
23.53922078829959
 30
0.0
  0
ENDBLK
  5
1005F
330
1005D
100
AcDbEntity
  8
0
100
AcDbBlockEnd
  0
BLOCK
  5
10109
330
10108
100
AcDbEntity
  8
0
100
AcDbBlockBegin
  2
*D1
 70
     1
 10
0.0
 20
0.0
 30
0.0
  3
*D1
  1

  0
LINE
  5
102E5
330
10108
100
AcDbEntity
  8
0
  6
Continuous
 62
     0
440
 16777216
370
    -2
100
AcDbLine
 10
22.96875
 20
22.96825
 30
0.0
 11
22.96875
 21
24.01769505522007
 31
0.0
  0
LINE
  5
102E6
330
10108
100
AcDbEntity
  8
0
  6
Continuous
 62
     0
440
 16777216
370
    -2
100
AcDbLine
 10
15.03125
 20
22.96825
 30
0.0
 11
15.03125
 21
24.01769505522007
 31
0.0
  0
LINE
  5
102E7
330
10108
100
AcDbEntity
  8
0
  6
Continuous
 62
     0
440
 16777216
370
    -2
100
AcDbLine
 10
22.78875
 20
23.83769505522007
 30
0.0
 11
19.46356753069576
 21
23.83769505522007
 31
0.0
  0
LINE
  5
102E8
330
10108
100
AcDbEntity
  8
0
  6
Continuous
 62
     0
440
 16777216
370
    -2
100
AcDbLine
 10
15.21125
 20
23.83769505522007
 30
0.0
 11
18.53643246930422
 21
23.83769505522007
 31
0.0
  0
SOLID
  5
102E9
330
10108
100
AcDbEntity
  8
0
  6
Continuous
 62
     0
440
 16777216
100
AcDbTrace
 10
22.78875
 20
23.86769505522007
 30
0.0
 11
22.78875
 21
23.80769505522007
 31
0.0
 12
22.96875
 22
23.83769505522007
 32
0.0
 13
22.96875
 23
23.83769505522007
 33
0.0
  0
SOLID
  5
102EA
330
10108
100
AcDbEntity
  8
0
  6
Continuous
 62
     0
440
 16777216
100
AcDbTrace
 10
15.21125
 20
23.86769505522007
 30
0.0
 11
15.21125
 21
23.80769505522007
 31
0.0
 12
15.03125
 22
23.83769505522007
 32
0.0
 13
15.03125
 23
23.83769505522007
 33
0.0
  0
MTEXT
  5
102EB
330
10108
100
AcDbEntity
  8
0
  6
Continuous
 62
     0
440
 16777216
100
AcDbMText
 10
19.0
 20
23.83769505522007
 30
0.0
 40
0.18
 41
0.0
 46
0.0
 71
     5
 72
     1
  1
\A1;7.9375
 73
     1
 44
1.0
  0
POINT
  5
102EC
330
10108
100
AcDbEntity
  8
Defpoints
  6
Continuous
 62
     0
440
 16777216
100
AcDbPoint
 10
22.96875
 20
22.90575
 30
-0.5
  0
POINT
  5
102ED
330
10108
100
AcDbEntity
  8
Defpoints
  6
Continuous
 62
     0
440
 16777216
100
AcDbPoint
 10
15.03125
 20
22.90575
 30
-0.5
  0
POINT
  5
102EE
330
10108
100
AcDbEntity
  8
Defpoints
  6
Continuous
 62
     0
440
 16777216
100
AcDbPoint
 10
15.03125
 20
23.83769505522007
 30
0.0
  0
ENDBLK
  5
1010A
330
10108
100
AcDbEntity
  8
0
100
AcDbBlockEnd
  0
BLOCK
  5
10121
330
10120
100
AcDbEntity
  8
0
100
AcDbBlockBegin
  2
*D2
 70
     1
 10
0.0
 20
0.0
 30
0.0
  3
*D2
  1

  0
LINE
  5
1031A
330
10120
100
AcDbEntity
  8
0
  6
Continuous
 62
     0
440
 16777216
370
    -2
100
AcDbLine
 10
23.03125
 20
15.09374999999999
 30
0.0
 11
24.14141843874479
 21
15.09374999999999
 31
0.0
  0
LINE
  5
1031B
330
10120
100
AcDbEntity
  8
0
  6
Continuous
 62
     0
440
 16777216
370
    -2
100
AcDbLine
 10
23.03125
 20
22.90575
 30
0.0
 11
24.14141843874479
 21
22.90575
 31
0.0
  0
LINE
  5
1031C
330
10120
100
AcDbEntity
  8
0
  6
Continuous
 62
     0
440
 16777216
370
    -2
100
AcDbLine
 10
23.96141843874479
 20
15.27374999999999
 30
0.0
 11
23.96141843874479
 21
18.81784686221009
 31
0.0
  0
LINE
  5
1031D
330
10120
100
AcDbEntity
  8
0
  6
Continuous
 62
     0
440
 16777216
370
    -2
100
AcDbLine
 10
23.96141843874479
 20
22.72575
 30
0.0
 11
23.96141843874479
 21
19.1816531377899
 31
0.0
  0
SOLID
  5
1031E
330
10120
100
AcDbEntity
  8
0
  6
Continuous
 62
     0
440
 16777216
100
AcDbTrace
 10
23.93141843874479
 20
15.27374999999999
 30
0.0
 11
23.99141843874479
 21
15.27374999999999
 31
0.0
 12
23.96141843874479
 22
15.09374999999999
 32
0.0
 13
23.96141843874479
 23
15.09374999999999
 33
0.0
  0
SOLID
  5
1031F
330
10120
100
AcDbEntity
  8
0
  6
Continuous
 62
     0
440
 16777216
100
AcDbTrace
 10
23.93141843874479
 20
22.72575
 30
0.0
 11
23.99141843874479
 21
22.72575
 31
0.0
 12
23.96141843874479
 22
22.90575
 32
0.0
 13
23.96141843874479
 23
22.90575
 33
0.0
  0
MTEXT
  5
10320
330
10120
100
AcDbEntity
  8
0
  6
Continuous
 62
     0
440
 16777216
100
AcDbMText
 10
23.96141843874478
 20
18.99975
 30
0.0
 40
0.18
 41
0.0
 46
0.0
 71
     5
 72
     1
  1
\A1;7.8120
 73
     1
 44
1.0
  0
POINT
  5
10321
330
10120
100
AcDbEntity
  8
Defpoints
  6
Continuous
 62
     0
440
 16777216
100
AcDbPoint
 10
22.96875
 20
15.09374999999999
 30
-0.5
  0
POINT
  5
10322
330
10120
100
AcDbEntity
  8
Defpoints
  6
Continuous
 62
     0
440
 16777216
100
AcDbPoint
 10
22.96875
 20
22.90575
 30
-0.5
  0
POINT
  5
10323
330
10120
100
AcDbEntity
  8
Defpoints
  6
Continuous
 62
     0
440
 16777216
100
AcDbPoint
 10
23.96141843874479
 20
22.90575
 30
0.0
  0
ENDBLK
  5
10122
330
10120
100
AcDbEntity
  8
0
100
AcDbBlockEnd
  0
BLOCK
  5
1013E
330
1013D
100
AcDbEntity
  8
0
100
AcDbBlockBegin
  2
*D3
 70
     1
 10
0.0
 20
0.0
 30
0.0
  3
*D3
  1

  0
LINE
  5
10339
330
1013D
100
AcDbEntity
  8
0
  6
Continuous
 62
     0
440
 16777216
370
    -2
100
AcDbLine
 10
14.96875
 20
15.09374999999999
 30
0.0
 11
13.57073885483682
 21
15.09374999999999
 31
0.0
  0
LINE
  5
1033A
330
1013D
100
AcDbEntity
  8
0
  6
Continuous
 62
     0
440
 16777216
370
    -2
100
AcDbLine
 10
15.37225941958157
 20
15.387
 30
0.0
 11
13.57073885483682
 21
15.387
 31
0.0
  0
LINE
  5
1033B
330
1013D
100
AcDbEntity
  8
0
  6
Continuous
 62
     0
440
 16777216
370
    -2
100
AcDbLine
 10
13.75073885483682
 20
14.91374999999999
 30
0.0
 11
13.75073885483682
 21
14.73374999999999
 31
0.0
  0
LINE
  5
1033C
330
1013D
100
AcDbEntity
  8
0
  6
Continuous
 62
     0
440
 16777216
370
    -2
100
AcDbLine
 10
13.75073885483682
 20
15.567
 30
0.0
 11
13.75073885483682
 21
15.747
 31
0.0
  0
LINE
  5
1033D
330
1013D
100
AcDbEntity
  8
0
  6
Continuous
 62
     0
440
 16777216
370
    -2
100
AcDbLine
 10
13.75073885483682
 20
15.747
 30
0.0
 11
13.93073885483682
 21
15.747
 31
0.0
  0
SOLID
  5
1033E
330
1013D
100
AcDbEntity
  8
0
  6
Continuous
 62
     0
440
 16777216
100
AcDbTrace
 10
13.72073885483682
 20
14.91374999999999
 30
0.0
 11
13.78073885483682
 21
14.91374999999999
 31
0.0
 12
13.75073885483682
 22
15.09374999999999
 32
0.0
 13
13.75073885483682
 23
15.09374999999999
 33
0.0
  0
SOLID
  5
1033F
330
1013D
100
AcDbEntity
  8
0
  6
Continuous
 62
     0
440
 16777216
100
AcDbTrace
 10
13.72073885483682
 20
15.567
 30
0.0
 11
13.78073885483682
 21
15.567
 31
0.0
 12
13.75073885483682
 22
15.387
 32
0.0
 13
13.75073885483682
 23
15.387
 33
0.0
  0
MTEXT
  5
10340
330
1013D
100
AcDbEntity
  8
0
  6
Continuous
 62
     0
440
 16777216
100
AcDbMText
 10
14.3943677770742
 20
15.747
 30
0.0
 40
0.18
 41
0.0
 46
0.0
 71
     5
 72
     1
  1
\A1;0.2933
 73
     1
 44
1.0
  0
POINT
  5
10341
330
1013D
100
AcDbEntity
  8
Defpoints
  6
Continuous
 62
     0
440
 16777216
100
AcDbPoint
 10
15.03125
 20
15.09374999999999
 30
-0.5
  0
POINT
  5
10342
330
1013D
100
AcDbEntity
  8
Defpoints
  6
Continuous
 62
     0
440
 16777216
100
AcDbPoint
 10
15.43475941958156
 20
15.387
 30
-0.5
  0
POINT
  5
10343
330
1013D
100
AcDbEntity
  8
Defpoints
  6
Continuous
 62
     0
440
 16777216
100
AcDbPoint
 10
13.75073885483682
 20
15.387
 30
0.0
  0
ENDBLK
  5
1013F
330
1013D
100
AcDbEntity
  8
0
100
AcDbBlockEnd
  0
BLOCK
  5
1015B
330
1015A
100
AcDbEntity
  8
0
100
AcDbBlockBegin
  2
*D4
 70
     1
 10
0.0
 20
0.0
 30
0.0
  3
*D4
  1

  0
LINE
  5
1030F
330
1015A
100
AcDbEntity
  8
0
  6
Continuous
 62
     0
440
 16777216
370
    -2
100
AcDbLine
 10
15.37225941958157
 20
22.613
 30
0.0
 11
13.65669486874593
 21
22.613
 31
0.0
  0
LINE
  5
10310
330
1015A
100
AcDbEntity
  8
0
  6
Continuous
 62
     0
440
 16777216
370
    -2
100
AcDbLine
 10
14.96875
 20
22.90575
 30
0.0
 11
13.65669486874593
 21
22.90575
 31
0.0
  0
LINE
  5
10311
330
1015A
100
AcDbEntity
  8
0
  6
Continuous
 62
     0
440
 16777216
370
    -2
100
AcDbLine
 10
13.83669486874594
 20
22.433
 30
0.0
 11
13.83669486874594
 21
22.253
 31
0.0
  0
LINE
  5
10312
330
1015A
100
AcDbEntity
  8
0
  6
Continuous
 62
     0
440
 16777216
370
    -2
100
AcDbLine
 10
13.83669486874594
 20
23.08575
 30
0.0
 11
13.83669486874594
 21
23.26575
 31
0.0
  0
LINE
  5
10313
330
1015A
100
AcDbEntity
  8
0
  6
Continuous
 62
     0
440
 16777216
370
    -2
100
AcDbLine
 10
13.83669486874594
 20
23.26575
 30
0.0
 11
14.01669486874594
 21
23.26575
 31
0.0
  0
SOLID
  5
10314
330
1015A
100
AcDbEntity
  8
0
  6
Continuous
 62
     0
440
 16777216
100
AcDbTrace
 10
13.80669486874594
 20
22.433
 30
0.0
 11
13.86669486874593
 21
22.433
 31
0.0
 12
13.83669486874594
 22
22.613
 32
0.0
 13
13.83669486874594
 23
22.613
 33
0.0
  0
SOLID
  5
10315
330
1015A
100
AcDbEntity
  8
0
  6
Continuous
 62
     0
440
 16777216
100
AcDbTrace
 10
13.80669486874594
 20
23.08575
 30
0.0
 11
13.86669486874593
 21
23.08575
 31
0.0
 12
13.83669486874594
 22
22.90575
 32
0.0
 13
13.83669486874594
 23
22.90575
 33
0.0
  0
MTEXT
  5
10316
330
1015A
100
AcDbEntity
  8
0
  6
Continuous
 62
     0
440
 16777216
100
AcDbMText
 10
14.48050796560814
 20
23.26575
 30
0.0
 40
0.18
 41
0.0
 46
0.0
 71
     5
 72
     1
  1
\A1;0.2928
 73
     1
 44
1.0
  0
POINT
  5
10317
330
1015A
100
AcDbEntity
  8
Defpoints
  6
Continuous
 62
     0
440
 16777216
100
AcDbPoint
 10
15.43475941958156
 20
22.613
 30
-0.5
  0
POINT
  5
10318
330
1015A
100
AcDbEntity
  8
Defpoints
  6
Continuous
 62
     0
440
 16777216
100
AcDbPoint
 10
15.03125
 20
22.90575
 30
-0.5
  0
POINT
  5
10319
330
1015A
100
AcDbEntity
  8
Defpoints
  6
Continuous
 62
     0
440
 16777216
100
AcDbPoint
 10
13.83669486874594
 20
22.90575
 30
0.0
  0
ENDBLK
  5
1015C
330
1015A
100
AcDbEntity
  8
0
100
AcDbBlockEnd
  0
BLOCK
  5
10186
330
10185
100
AcDbEntity
  8
0
100
AcDbBlockBegin
  2
*D5
 70
     1
 10
0.0
 20
0.0
 30
0.0
  3
*D5
  1

  0
LINE
  5
1032F
330
10185
100
AcDbEntity
  8
0
  6
Continuous
 62
     0
440
 16777216
370
    -2
100
AcDbLine
 10
15.36951883916314
 20
15.4375
 30
0.0
 11
15.36951883916314
 21
13.87868523384976
 31
0.0
  0
LINE
  5
10330
330
10185
100
AcDbEntity
  8
0
  6
Continuous
 62
     0
440
 16777216
370
    -2
100
AcDbLine
 10
15.03125
 20
15.4375
 30
0.0
 11
15.03125
 21
13.87868523384976
 31
0.0
  0
LINE
  5
10331
330
10185
100
AcDbEntity
  8
0
  6
Continuous
 62
     0
440
 16777216
370
    -2
100
AcDbLine
 10
15.54951883916314
 20
14.05868523384976
 30
0.0
 11
15.72951883916314
 21
14.05868523384976
 31
0.0
  0
LINE
  5
10332
330
10185
100
AcDbEntity
  8
0
  6
Continuous
 62
     0
440
 16777216
370
    -2
100
AcDbLine
 10
14.85125
 20
14.05868523384976
 30
0.0
 11
14.67125
 21
14.05868523384976
 31
0.0
  0
SOLID
  5
10333
330
10185
100
AcDbEntity
  8
0
  6
Continuous
 62
     0
440
 16777216
100
AcDbTrace
 10
15.54951883916314
 20
14.08868523384976
 30
0.0
 11
15.54951883916314
 21
14.02868523384976
 31
0.0
 12
15.36951883916314
 22
14.05868523384976
 32
0.0
 13
15.36951883916314
 23
14.05868523384976
 33
0.0
  0
SOLID
  5
10334
330
10185
100
AcDbEntity
  8
0
  6
Continuous
 62
     0
440
 16777216
100
AcDbTrace
 10
14.85125
 20
14.08868523384976
 30
0.0
 11
14.85125
 21
14.02868523384976
 31
0.0
 12
15.03125
 22
14.05868523384976
 32
0.0
 13
15.03125
 23
14.05868523384976
 33
0.0
  0
MTEXT
  5
10335
330
10185
100
AcDbEntity
  8
0
  6
Continuous
 62
     0
440
 16777216
100
AcDbMText
 10
14.20762107776261
 20
14.05868523384976
 30
0.0
 40
0.18
 41
0.0
 46
0.0
 71
     5
 72
     1
  1
\A1;0.3383
 73
     1
 44
1.0
  0
POINT
  5
10336
330
10185
100
AcDbEntity
  8
Defpoints
  6
Continuous
 62
     0
440
 16777216
100
AcDbPoint
 10
15.36951883916314
 20
15.5
 30
-0.5
  0
POINT
  5
10337
330
10185
100
AcDbEntity
  8
Defpoints
  6
Continuous
 62
     0
440
 16777216
100
AcDbPoint
 10
15.03125
 20
15.5
 30
-0.5
  0
POINT
  5
10338
330
10185
100
AcDbEntity
  8
Defpoints
  6
Continuous
 62
     0
440
 16777216
100
AcDbPoint
 10
15.03125
 20
14.05868523384976
 30
0.0
  0
ENDBLK
  5
10187
330
10185
100
AcDbEntity
  8
0
100
AcDbBlockEnd
  0
BLOCK
  5
10194
330
10193
100
AcDbEntity
  8
0
100
AcDbBlockBegin
  2
*D6
 70
     1
 10
0.0
 20
0.0
 30
0.0
  3
*D6
  1

  0
LINE
  5
10344
330
10193
100
AcDbEntity
  8
0
  6
Continuous
 62
     0
440
 16777216
370
    -2
100
AcDbLine
 10
15.56524058041842
 20
15.67549999999999
 30
0.0
 11
15.56524058041842
 21
16.4190054030721
 31
0.0
  0
LINE
  5
10345
330
10193
100
AcDbEntity
  8
0
  6
Continuous
 62
     0
440
 16777216
370
    -2
100
AcDbLine
 10
15.43475941958156
 20
15.6755
 30
0.0
 11
15.43475941958156
 21
16.4190054030721
 31
0.0
  0
LINE
  5
10346
330
10193
100
AcDbEntity
  8
0
  6
Continuous
 62
     0
440
 16777216
370
    -2
100
AcDbLine
 10
15.74524058041842
 20
16.2390054030721
 30
0.0
 11
15.92524058041842
 21
16.2390054030721
 31
0.0
  0
LINE
  5
10347
330
10193
100
AcDbEntity
  8
0
  6
Continuous
 62
     0
440
 16777216
370
    -2
100
AcDbLine
 10
15.25475941958157
 20
16.2390054030721
 30
0.0
 11
15.07475941958156
 21
16.2390054030721
 31
0.0
  0
SOLID
  5
10348
330
10193
100
AcDbEntity
  8
0
  6
Continuous
 62
     0
440
 16777216
100
AcDbTrace
 10
15.74524058041842
 20
16.2690054030721
 30
0.0
 11
15.74524058041842
 21
16.2090054030721
 31
0.0
 12
15.56524058041842
 22
16.2390054030721
 32
0.0
 13
15.56524058041842
 23
16.2390054030721
 33
0.0
  0
SOLID
  5
10349
330
10193
100
AcDbEntity
  8
0
  6
Continuous
 62
     0
440
 16777216
100
AcDbTrace
 10
15.25475941958157
 20
16.2690054030721
 30
0.0
 11
15.25475941958157
 21
16.2090054030721
 31
0.0
 12
15.43475941958156
 22
16.2390054030721
 32
0.0
 13
15.43475941958156
 23
16.2390054030721
 33
0.0
  0
MTEXT
  5
1034A
330
10193
100
AcDbEntity
  8
0
  6
Continuous
 62
     0
440
 16777216
100
AcDbMText
 10
14.61045519038648
 20
16.2390054030721
 30
0.0
 40
0.18
 41
0.0
 46
0.0
 71
     5
 72
     1
  1
\A1;0.1305
 73
     1
 44
1.0
  0
POINT
  5
1034B
330
10193
100
AcDbEntity
  8
Defpoints
  6
Continuous
 62
     0
440
 16777216
100
AcDbPoint
 10
15.56524058041842
 20
15.613
 30
-0.5
  0
POINT
  5
1034C
330
10193
100
AcDbEntity
  8
Defpoints
  6
Continuous
 62
     0
440
 16777216
100
AcDbPoint
 10
15.43475941958156
 20
15.613
 30
-0.5
  0
POINT
  5
1034D
330
10193
100
AcDbEntity
  8
Defpoints
  6
Continuous
 62
     0
440
 16777216
100
AcDbPoint
 10
15.43475941958156
 20
16.2390054030721
 30
0.0
  0
ENDBLK
  5
10195
330
10193
100
AcDbEntity
  8
0
100
AcDbBlockEnd
  0
BLOCK
  5
101A2
330
101A1
100
AcDbEntity
  8
0
100
AcDbBlockBegin
  2
*D7
 70
     1
 10
0.0
 20
0.0
 30
0.0
  3
*D7
  1

  0
LINE
  5
10305
330
101A1
100
AcDbEntity
  8
0
  6
Continuous
 62
     0
440
 16777216
370
    -2
100
AcDbLine
 10
17.36170080756887
 20
22.22487976320957
 30
0.0
 11
17.36170080756887
 21
22.70091663119615
 31
0.0
  0
LINE
  5
10306
330
101A1
100
AcDbEntity
  8
0
  6
Continuous
 62
     0
440
 16777216
370
    -2
100
AcDbLine
 10
17.17420080756887
 20
22.22487976320957
 30
0.0
 11
17.17420080756887
 21
22.70091663119615
 31
0.0
  0
LINE
  5
10307
330
101A1
100
AcDbEntity
  8
0
  6
Continuous
 62
     0
440
 16777216
370
    -2
100
AcDbLine
 10
17.54170080756887
 20
22.52091663119614
 30
0.0
 11
17.72170080756887
 21
22.52091663119614
 31
0.0
  0
LINE
  5
10308
330
101A1
100
AcDbEntity
  8
0
  6
Continuous
 62
     0
440
 16777216
370
    -2
100
AcDbLine
 10
16.99420080756887
 20
22.52091663119614
 30
0.0
 11
16.81420080756887
 21
22.52091663119614
 31
0.0
  0
SOLID
  5
10309
330
101A1
100
AcDbEntity
  8
0
  6
Continuous
 62
     0
440
 16777216
100
AcDbTrace
 10
17.54170080756887
 20
22.55091663119614
 30
0.0
 11
17.54170080756887
 21
22.49091663119614
 31
0.0
 12
17.36170080756887
 22
22.52091663119614
 32
0.0
 13
17.36170080756887
 23
22.52091663119614
 33
0.0
  0
SOLID
  5
1030A
330
101A1
100
AcDbEntity
  8
0
  6
Continuous
 62
     0
440
 16777216
100
AcDbTrace
 10
16.99420080756887
 20
22.55091663119614
 30
0.0
 11
16.99420080756887
 21
22.49091663119614
 31
0.0
 12
17.17420080756887
 22
22.52091663119614
 32
0.0
 13
17.17420080756887
 23
22.52091663119614
 33
0.0
  0
MTEXT
  5
1030B
330
101A1
100
AcDbEntity
  8
0
  6
Continuous
 62
     0
440
 16777216
100
AcDbMText
 10
16.34989657837378
 20
22.52091663119614
 30
0.0
 40
0.18
 41
0.0
 46
0.0
 71
     5
 72
     1
  1
\A1;0.1875
 73
     1
 44
1.0
  0
POINT
  5
1030C
330
101A1
100
AcDbEntity
  8
Defpoints
  6
Continuous
 62
     0
440
 16777216
100
AcDbPoint
 10
17.36170080756887
 20
22.16237976320957
 30
-0.5
  0
POINT
  5
1030D
330
101A1
100
AcDbEntity
  8
Defpoints
  6
Continuous
 62
     0
440
 16777216
100
AcDbPoint
 10
17.17420080756887
 20
22.16237976320957
 30
-0.5
  0
POINT
  5
1030E
330
101A1
100
AcDbEntity
  8
Defpoints
  6
Continuous
 62
     0
440
 16777216
100
AcDbPoint
 10
17.17420080756887
 20
22.52091663119614
 30
0.0
  0
ENDBLK
  5
101A3
330
101A1
100
AcDbEntity
  8
0
100
AcDbBlockEnd
  0
BLOCK
  5
101B0
330
101AF
100
AcDbEntity
  8
0
100
AcDbBlockBegin
  2
*D8
 70
     1
 10
0.0
 20
0.0
 30
0.0
  3
*D8
  1

  0
LINE
  5
102FA
330
101AF
100
AcDbEntity
  8
0
  6
Continuous
 62
     0
440
 16777216
370
    -2
100
AcDbLine
 10
18.35272621135332
 20
22.05412658773653
 30
0.0
 11
18.78380592960909
 21
22.80077856186807
 31
0.0
  0
LINE
  5
102FB
330
101AF
100
AcDbEntity
  8
0
  6
Continuous
 62
     0
440
 16777216
370
    -2
100
AcDbLine
 10
18.50448891324553
 20
21.9665063509461
 30
0.0
 11
18.93556863150131
 21
22.71315832507766
 31
0.0
  0
LINE
  5
102FC
330
101AF
100
AcDbEntity
  8
0
  6
Continuous
 62
     0
440
 16777216
370
    -2
100
AcDbLine
 10
18.53792135692789
 20
22.73489398918687
 30
0.0
 11
18.38203678424669
 21
22.82489398918686
 31
0.0
  0
LINE
  5
102FD
330
101AF
100
AcDbEntity
  8
0
  6
Continuous
 62
     0
440
 16777216
370
    -2
100
AcDbLine
 10
19.00145320418252
 20
22.46727375239646
 30
0.0
 11
19.15733777686373
 21
22.37727375239647
 31
0.0
  0
LINE
  5
102FE
330
101AF
100
AcDbEntity
  8
0
  6
Continuous
 62
     0
440
 16777216
370
    -2
100
AcDbLine
 10
19.15733777686373
 20
22.37727375239647
 30
0.0
 11
19.33733777686373
 21
22.37727375239646
 31
0.0
  0
SOLID
  5
102FF
330
101AF
100
AcDbEntity
  8
0
  6
Continuous
 62
     0
440
 16777216
100
AcDbTrace
 10
18.5529213569279
 20
22.7608747513004
 30
0.0
 11
18.52292135692789
 21
22.70891322707333
 31
0.0
 12
18.6938059296091
 22
22.64489398918687
 32
0.0
 13
18.6938059296091
 23
22.64489398918687
 33
0.0
  0
SOLID
  5
10300
330
101AF
100
AcDbEntity
  8
0
  6
Continuous
 62
     0
440
 16777216
100
AcDbTrace
 10
19.01645320418252
 20
22.49325451450999
 30
0.0
 11
18.98645320418252
 21
22.44129299028292
 31
0.0
 12
18.84556863150132
 22
22.55727375239645
 32
0.0
 13
18.84556863150132
 23
22.55727375239645
 33
0.0
  0
MTEXT
  5
10301
330
101AF
100
AcDbEntity
  8
0
  6
Continuous
 62
     0
440
 16777216
100
AcDbMText
 10
19.80004582597696
 20
22.37727375239646
 30
0.0
 40
0.18
 41
0.0
 46
0.0
 71
     5
 72
     1
  1
\A1;0.1752
 73
     1
 44
1.0
  0
POINT
  5
10302
330
101AF
100
AcDbEntity
  8
Defpoints
  6
Continuous
 62
     0
440
 16777216
100
AcDbPoint
 10
18.32147621135332
 20
22.0
 30
-0.5
  0
POINT
  5
10303
330
101AF
100
AcDbEntity
  8
Defpoints
  6
Continuous
 62
     0
440
 16777216
100
AcDbPoint
 10
18.47323891324553
 20
21.91237976320957
 30
-0.5
  0
POINT
  5
10304
330
101AF
100
AcDbEntity
  8
Defpoints
  6
Continuous
 62
     0
440
 16777216
100
AcDbPoint
 10
18.84556863150132
 20
22.55727375239645
 30
0.0
  0
ENDBLK
  5
101B1
330
101AF
100
AcDbEntity
  8
0
100
AcDbBlockEnd
  0
BLOCK
  5
101CA
330
101C9
100
AcDbEntity
  8
0
100
AcDbBlockBegin
  2
*D9
 70
     1
 10
0.0
 20
0.0
 30
0.0
  3
*D9
  1

  0
LINE
  5
10324
330
101C9
100
AcDbEntity
  8
0
  6
Continuous
 62
     0
440
 16777216
370
    -2
100
AcDbLine
 10
20.57580242270664
 20
15.83762023679041
 30
0.0
 11
20.24988446146608
 21
15.83762023679041
 31
0.0
  0
LINE
  5
10325
330
101C9
100
AcDbEntity
  8
0
  6
Continuous
 62
     0
440
 16777216
370
    -2
100
AcDbLine
 10
20.36738446146607
 20
15.09374999999999
 30
0.0
 11
20.24988446146608
 21
15.09374999999999
 31
0.0
  0
LINE
  5
10326
330
101C9
100
AcDbEntity
  8
0
  6
Continuous
 62
     0
440
 16777216
370
    -2
100
AcDbLine
 10
20.42988446146607
 20
15.65762023679041
 30
0.0
 11
20.42988446146607
 21
15.27374999999999
 31
0.0
  0
LINE
  5
10327
330
101C9
100
AcDbEntity
  8
0
  6
Continuous
 62
     0
440
 16777216
370
    -2
100
AcDbLine
 10
20.42988446146607
 20
15.09374999999999
 30
0.0
 11
20.42988446146607
 21
14.91374999999999
 31
0.0
  0
LINE
  5
10328
330
101C9
100
AcDbEntity
  8
0
  6
Continuous
 62
     0
440
 16777216
370
    -2
100
AcDbLine
 10
20.42988446146607
 20
14.91374999999999
 30
0.0
 11
20.24988446146608
 21
14.91374999999999
 31
0.0
  0
SOLID
  5
10329
330
101C9
100
AcDbEntity
  8
0
  6
Continuous
 62
     0
440
 16777216
100
AcDbTrace
 10
20.39988446146607
 20
15.65762023679041
 30
0.0
 11
20.45988446146608
 21
15.65762023679041
 31
0.0
 12
20.42988446146607
 22
15.83762023679041
 32
0.0
 13
20.42988446146607
 23
15.83762023679041
 33
0.0
  0
SOLID
  5
1032A
330
101C9
100
AcDbEntity
  8
0
  6
Continuous
 62
     0
440
 16777216
100
AcDbTrace
 10
20.39988446146607
 20
15.27374999999999
 30
0.0
 11
20.45988446146608
 21
15.27374999999999
 31
0.0
 12
20.42988446146607
 22
15.09374999999999
 32
0.0
 13
20.42988446146607
 23
15.09374999999999
 33
0.0
  0
MTEXT
  5
1032B
330
101C9
100
AcDbEntity
  8
0
  6
Continuous
 62
     0
440
 16777216
100
AcDbMText
 10
19.78607136460386
 20
14.91374999999999
 30
0.0
 40
0.18
 41
0.0
 46
0.0
 71
     5
 72
     1
  1
\A1;0.7439
 73
     1
 44
1.0
  0
POINT
  5
1032C
330
101C9
100
AcDbEntity
  8
Defpoints
  6
Continuous
 62
     0
440
 16777216
100
AcDbPoint
 10
20.63830242270664
 20
15.83762023679041
 30
-0.5
  0
POINT
  5
1032D
330
101C9
100
AcDbEntity
  8
Defpoints
  6
Continuous
 62
     0
440
 16777216
100
AcDbPoint
 10
20.42988446146607
 20
15.09374999999999
 30
-0.5
  0
POINT
  5
1032E
330
101C9
100
AcDbEntity
  8
Defpoints
  6
Continuous
 62
     0
440
 16777216
100
AcDbPoint
 10
20.42988446146607
 20
15.09374999999999
 30
0.0
  0
ENDBLK
  5
101CB
330
101C9
100
AcDbEntity
  8
0
100
AcDbBlockEnd
  0
BLOCK
  5
101D9
330
101D8
100
AcDbEntity
  8
0
100
AcDbBlockBegin
  2
*D10
 70
     1
 10
0.0
 20
0.0
 30
0.0
  3
*D10
  1

  0
LINE
  5
1034E
330
101D8
100
AcDbEntity
  8
0
  6
Continuous
 62
     0
440
 16777216
370
    -2
100
AcDbLine
 10
15.78141270189221
 20
21.1875
 30
0.0
 11
15.78141270189221
 21
20.87292147085005
 31
0.0
  0
LINE
  5
1034F
330
101D8
100
AcDbEntity
  8
0
  6
Continuous
 62
     0
440
 16777216
370
    -2
100
AcDbLine
 10
15.03125
 20
21.1875
 30
0.0
 11
15.03125
 21
20.87292147085005
 31
0.0
  0
LINE
  5
10350
330
101D8
100
AcDbEntity
  8
0
  6
Continuous
 62
     0
440
 16777216
370
    -2
100
AcDbLine
 10
15.60141270189221
 20
21.05292147085005
 30
0.0
 11
15.21125
 21
21.05292147085005
 31
0.0
  0
LINE
  5
10351
330
101D8
100
AcDbEntity
  8
0
  6
Continuous
 62
     0
440
 16777216
370
    -2
100
AcDbLine
 10
15.03125
 20
21.05292147085005
 30
0.0
 11
14.85125
 21
21.05292147085005
 31
0.0
  0
SOLID
  5
10352
330
101D8
100
AcDbEntity
  8
0
  6
Continuous
 62
     0
440
 16777216
100
AcDbTrace
 10
15.60141270189221
 20
21.08292147085006
 30
0.0
 11
15.60141270189221
 21
21.02292147085005
 31
0.0
 12
15.78141270189221
 22
21.05292147085005
 32
0.0
 13
15.78141270189221
 23
21.05292147085005
 33
0.0
  0
SOLID
  5
10353
330
101D8
100
AcDbEntity
  8
0
  6
Continuous
 62
     0
440
 16777216
100
AcDbTrace
 10
15.21125
 20
21.08292147085006
 30
0.0
 11
15.21125
 21
21.02292147085005
 31
0.0
 12
15.03125
 22
21.05292147085005
 32
0.0
 13
15.03125
 23
21.05292147085005
 33
0.0
  0
MTEXT
  5
10354
330
101D8
100
AcDbEntity
  8
0
  6
Continuous
 62
     0
440
 16777216
100
AcDbMText
 10
14.38854195088676
 20
21.05292147085005
 30
0.0
 40
0.18
 41
0.0
 46
0.0
 71
     5
 72
     1
  1
\A1;0.7502
 73
     1
 44
1.0
  0
POINT
  5
10355
330
101D8
100
AcDbEntity
  8
Defpoints
  6
Continuous
 62
     0
440
 16777216
100
AcDbPoint
 10
15.78141270189221
 20
21.25
 30
-0.5
  0
POINT
  5
10356
330
101D8
100
AcDbEntity
  8
Defpoints
  6
Continuous
 62
     0
440
 16777216
100
AcDbPoint
 10
15.03125
 20
21.25
 30
-0.5
  0
POINT
  5
10357
330
101D8
100
AcDbEntity
  8
Defpoints
  6
Continuous
 62
     0
440
 16777216
100
AcDbPoint
 10
15.03125
 20
21.05292147085005
 30
0.0
  0
ENDBLK
  5
101DA
330
101D8
100
AcDbEntity
  8
0
100
AcDbBlockEnd
  0
BLOCK
  5
101E7
330
101E6
100
AcDbEntity
  8
0
100
AcDbBlockBegin
  2
*D11
 70
     1
 10
0.0
 20
0.0
 30
0.0
  3
*D11
  1

  0
LINE
  5
102EF
330
101E6
100
AcDbEntity
  8
0
  6
Continuous
 62
     0
440
 16777216
370
    -2
100
AcDbLine
 10
20.88830242270664
 20
22.16237976320957
 30
0.0
 11
21.29251899329507
 21
22.16237976320957
 31
0.0
  0
LINE
  5
102F0
330
101E6
100
AcDbEntity
  8
0
  6
Continuous
 62
     0
440
 16777216
370
    -2
100
AcDbLine
 10
21.05001899329507
 20
22.90575
 30
0.0
 11
20.93251899329507
 21
22.90575
 31
0.0
  0
LINE
  5
102F1
330
101E6
100
AcDbEntity
  8
0
  6
Continuous
 62
     0
440
 16777216
370
    -2
100
AcDbLine
 10
21.11251899329507
 20
22.34237976320957
 30
0.0
 11
21.11251899329507
 21
22.72575
 31
0.0
  0
LINE
  5
102F2
330
101E6
100
AcDbEntity
  8
0
  6
Continuous
 62
     0
440
 16777216
370
    -2
100
AcDbLine
 10
21.11251899329507
 20
22.90575
 30
0.0
 11
21.11251899329507
 21
23.08575
 31
0.0
  0
LINE
  5
102F3
330
101E6
100
AcDbEntity
  8
0
  6
Continuous
 62
     0
440
 16777216
370
    -2
100
AcDbLine
 10
21.11251899329507
 20
23.08575
 30
0.0
 11
21.29251899329507
 21
23.08575
 31
0.0
  0
SOLID
  5
102F4
330
101E6
100
AcDbEntity
  8
0
  6
Continuous
 62
     0
440
 16777216
100
AcDbTrace
 10
21.08251899329507
 20
22.34237976320957
 30
0.0
 11
21.14251899329507
 21
22.34237976320957
 31
0.0
 12
21.11251899329507
 22
22.16237976320957
 32
0.0
 13
21.11251899329507
 23
22.16237976320957
 33
0.0
  0
SOLID
  5
102F5
330
101E6
100
AcDbEntity
  8
0
  6
Continuous
 62
     0
440
 16777216
100
AcDbTrace
 10
21.08251899329507
 20
22.72575
 30
0.0
 11
21.14251899329507
 21
22.72575
 31
0.0
 12
21.11251899329507
 22
22.90575
 32
0.0
 13
21.11251899329507
 23
22.90575
 33
0.0
  0
MTEXT
  5
102F6
330
101E6
100
AcDbEntity
  8
0
  6
Continuous
 62
     0
440
 16777216
100
AcDbMText
 10
21.75577956628279
 20
23.08575000000001
 30
0.0
 40
0.18
 41
0.0
 46
0.0
 71
     5
 72
     1
  1
\A1;0.7434
 73
     1
 44
1.0
  0
POINT
  5
102F7
330
101E6
100
AcDbEntity
  8
Defpoints
  6
Continuous
 62
     0
440
 16777216
100
AcDbPoint
 10
20.82580242270664
 20
22.16237976320957
 30
-0.5
  0
POINT
  5
102F8
330
101E6
100
AcDbEntity
  8
Defpoints
  6
Continuous
 62
     0
440
 16777216
100
AcDbPoint
 10
21.11251899329507
 20
22.90575
 30
-0.5
  0
POINT
  5
102F9
330
101E6
100
AcDbEntity
  8
Defpoints
  6
Continuous
 62
     0
440
 16777216
100
AcDbPoint
 10
21.11251899329507
 20
22.90575
 30
0.0
  0
ENDBLK
  5
101E8
330
101E6
100
AcDbEntity
  8
0
100
AcDbBlockEnd
  0
ENDSEC
  0
SECTION
  2
ENTITIES
  0
LINE
  5
100
330
1F
100
AcDbEntity
  8
0
100
AcDbLine
 10
16.30817540378443
 20
16.66237976320958
 30
-0.5
 11
16.21442540378443
 21
16.49999999999999
 31
-0.5
  0
LINE
  5
101
330
1F
100
AcDbEntity
  8
0
100
AcDbLine
 10
16.21442540378443
 20
16.49999999999999
 30
-0.5
 11
16.30817540378443
 21
16.33762023679041
 31
-0.5
  0
LINE
  5
102
330
1F
100
AcDbEntity
  8
0
100
AcDbLine
 10
16.58942540378443
 20
15.99999999999999
 30
-0.5
 11
16.49567540378443
 21
16.16237976320957
 31
-0.5
  0
LINE
  5
103
330
1F
100
AcDbEntity
  8
0
100
AcDbLine
 10
16.30817540378443
 20
16.33762023679041
 30
-0.5
 11
16.49567540378443
 21
16.33762023679041
 31
-0.5
  0
LINE
  5
104
330
1F
100
AcDbEntity
  8
0
100
AcDbLine
 10
16.49567540378443
 20
16.16237976320957
 30
-0.5
 11
16.30817540378443
 21
16.16237976320957
 31
-0.5
  0
LINE
  5
105
330
1F
100
AcDbEntity
  8
0
100
AcDbLine
 10
16.06266270189221
 20
18.91237976320957
 30
-0.5
 11
15.87516270189221
 21
18.91237976320957
 31
-0.5
  0
LINE
  5
106
330
1F
100
AcDbEntity
  8
0
100
AcDbLine
 10
16.92868810567665
 20
16.41237976320957
 30
-0.5
 11
16.74118810567665
 21
16.41237976320957
 31
-0.5
  0
LINE
  5
107
330
1F
100
AcDbEntity
  8
0
100
AcDbLine
 10
15.87516270189221
 20
20.41237976320958
 30
-0.5
 11
15.78141270189221
 21
20.25
 31
-0.5
  0
LINE
  5
108
330
1F
100
AcDbEntity
  8
0
100
AcDbLine
 10
16.15641270189221
 20
18.75
 30
-0.5
 11
16.06266270189221
 21
18.91237976320957
 31
-0.5
  0
LINE
  5
109
330
1F
100
AcDbEntity
  8
0
100
AcDbLine
 10
15.87516270189221
 20
19.41237976320957
 30
-0.5
 11
15.78141270189221
 21
19.25
 31
-0.5
  0
LINE
  5
110
330
1F
100
AcDbEntity
  8
0
100
AcDbLine
 10
15.03125
 20
15.09374999999999
 30
-0.5
 11
22.96875
 21
15.09374999999999
 31
-0.5
  0
LINE
  5
111
330
1F
100
AcDbEntity
  8
0
100
AcDbLine
 10
16.15641270189221
 20
19.75
 30
-0.5
 11
16.06266270189221
 21
19.91237976320957
 31
-0.5
  0
LINE
  5
112
330
1F
100
AcDbEntity
  8
0
100
AcDbLine
 10
16.06266270189221
 20
20.41237976320958
 30
-0.5
 11
15.87516270189221
 21
20.41237976320958
 31
-0.5
  0
LINE
  5
113
330
1F
100
AcDbEntity
  8
0
100
AcDbLine
 10
16.64743810567665
 20
16.74999999999999
 30
-0.5
 11
16.74118810567665
 21
16.58762023679042
 31
-0.5
  0
LINE
  5
114
330
1F
100
AcDbEntity
  8
0
100
AcDbLine
 10
17.02243810567665
 20
16.25
 30
-0.5
 11
16.92868810567665
 21
16.41237976320957
 31
-0.5
  0
LINE
  5
115
330
1F
100
AcDbEntity
  8
0
100
AcDbLine
 10
16.06266270189221
 20
19.08762023679041
 30
-0.5
 11
16.15641270189221
 21
19.25
 31
-0.5
  0
LINE
  5
116
330
1F
100
AcDbEntity
  8
0
100
AcDbLine
 10
15.87516270189221
 20
20.08762023679041
 30
-0.5
 11
16.06266270189221
 21
20.08762023679041
 31
-0.5
  0
LINE
  5
117
330
1F
100
AcDbEntity
  8
0
100
AcDbLine
 10
15.87516270189221
 20
19.08762023679041
 30
-0.5
 11
16.06266270189221
 21
19.08762023679041
 31
-0.5
  0
LINE
  5
118
330
1F
100
AcDbEntity
  8
0
100
AcDbLine
 10
16.06266270189221
 20
20.08762023679041
 30
-0.5
 11
16.15641270189221
 21
20.25
 31
-0.5
  0
LINE
  5
119
330
1F
100
AcDbEntity
  8
0
100
AcDbLine
 10
16.74118810567665
 20
16.91237976320957
 30
-0.5
 11
16.64743810567665
 21
16.74999999999999
 31
-0.5
  0
LINE
  5
120
330
1F
100
AcDbEntity
  8
0
100
AcDbLine
 10
16.15641270189221
 20
20.25
 30
-0.5
 11
16.06266270189221
 21
20.41237976320958
 31
-0.5
  0
LINE
  5
121
330
1F
100
AcDbEntity
  8
0
100
AcDbLine
 10
16.15641270189221
 20
19.25
 30
-0.5
 11
16.06266270189221
 21
19.41237976320957
 31
-0.5
  0
LINE
  5
122
330
1F
100
AcDbEntity
  8
0
100
AcDbLine
 10
16.06266270189221
 20
19.41237976320957
 30
-0.5
 11
15.87516270189221
 21
19.41237976320957
 31
-0.5
  0
LINE
  5
123
330
1F
100
AcDbEntity
  8
0
100
AcDbLine
 10
15.78141270189221
 20
19.25
 30
-0.5
 11
15.87516270189221
 21
19.08762023679041
 31
-0.5
  0
LINE
  5
124
330
1F
100
AcDbEntity
  8
0
100
AcDbLine
 10
15.78141270189221
 20
20.25
 30
-0.5
 11
15.87516270189221
 21
20.08762023679041
 31
-0.5
  0
LINE
  5
125
330
1F
100
AcDbEntity
  8
0
100
AcDbLine
 10
16.06266270189221
 20
18.41237976320957
 30
-0.5
 11
15.87516270189221
 21
18.41237976320957
 31
-0.5
  0
LINE
  5
126
330
1F
100
AcDbEntity
  8
0
100
AcDbLine
 10
16.15641270189221
 20
18.25
 30
-0.5
 11
16.06266270189221
 21
18.41237976320957
 31
-0.5
  0
LINE
  5
127
330
1F
100
AcDbEntity
  8
0
100
AcDbLine
 10
18.66073891324553
 20
20.91237976320957
 30
-0.5
 11
18.47323891324553
 21
20.91237976320957
 31
-0.5
  0
LINE
  5
128
330
1F
100
AcDbEntity
  8
0
100
AcDbLine
 10
16.06266270189221
 20
18.08762023679041
 30
-0.5
 11
16.15641270189221
 21
18.25
 31
-0.5
  0
LINE
  5
129
330
1F
100
AcDbEntity
  8
0
100
AcDbLine
 10
15.87516270189221
 20
19.91237976320957
 30
-0.5
 11
15.78141270189221
 21
19.75
 31
-0.5
  0
LINE
  5
130
330
1F
100
AcDbEntity
  8
0
100
AcDbLine
 10
15.78141270189221
 20
19.75
 30
-0.5
 11
15.87516270189221
 21
19.58762023679041
 31
-0.5
  0
LINE
  5
131
330
1F
100
AcDbEntity
  8
0
100
AcDbLine
 10
19.52676431702997
 20
21.91237976320957
 30
-0.5
 11
19.33926431702997
 21
21.91237976320957
 31
-0.5
  0
LINE
  5
132
330
1F
100
AcDbEntity
  8
0
100
AcDbLine
 10
16.06266270189221
 20
19.58762023679041
 30
-0.5
 11
16.15641270189221
 21
19.75
 31
-0.5
  0
LINE
  5
133
330
1F
100
AcDbEntity
  8
0
100
AcDbLine
 10
15.87516270189221
 20
19.58762023679041
 30
-0.5
 11
16.06266270189221
 21
19.58762023679041
 31
-0.5
  0
LINE
  5
134
330
1F
100
AcDbEntity
  8
0
100
AcDbLine
 10
16.06266270189221
 20
19.91237976320957
 30
-0.5
 11
15.87516270189221
 21
19.91237976320957
 31
-0.5
  0
LINE
  5
135
330
1F
100
AcDbEntity
  8
0
100
AcDbLine
 10
15.03125
 20
22.90575
 30
-0.5
 11
15.03125
 21
15.09374999999999
 31
-0.5
  0
LINE
  5
136
330
1F
100
AcDbEntity
  8
0
100
AcDbLine
 10
19.52676431702997
 20
20.08762023679041
 30
-0.5
 11
19.62051431702997
 21
20.25
 31
-0.5
  0
LINE
  5
137
330
1F
100
AcDbEntity
  8
0
100
AcDbLine
 10
15.87516270189221
 20
17.41237976320958
 30
-0.5
 11
15.78141270189221
 21
17.24999999999999
 31
-0.5
  0
LINE
  5
138
330
1F
100
AcDbEntity
  8
0
100
AcDbLine
 10
15.78141270189221
 20
21.25
 30
-0.5
 11
15.87516270189221
 21
21.08762023679041
 31
-0.5
  0
LINE
  5
139
330
1F
100
AcDbEntity
  8
0
100
AcDbLine
 10
16.06266270189221
 20
17.08762023679041
 30
-0.5
 11
16.15641270189221
 21
17.24999999999999
 31
-0.5
  0
LINE
  5
140
330
1F
100
AcDbEntity
  8
0
100
AcDbLine
 10
16.06266270189221
 20
16.91237976320957
 30
-0.5
 11
15.87516270189221
 21
16.91237976320957
 31
-0.5
  0
LINE
  5
141
330
1F
100
AcDbEntity
  8
0
100
AcDbLine
 10
16.06266270189221
 20
17.41237976320958
 30
-0.5
 11
15.87516270189221
 21
17.41237976320958
 31
-0.5
  0
LINE
  5
142
330
1F
100
AcDbEntity
  8
0
100
AcDbLine
 10
22.96875
 20
22.90575
 30
-0.5
 11
15.03125
 21
22.90575
 31
-0.5
  0
LINE
  5
143
330
1F
100
AcDbEntity
  8
0
100
AcDbLine
 10
16.74118810567665
 20
17.41237976320958
 30
-0.5
 11
16.64743810567665
 21
17.24999999999999
 31
-0.5
  0
LINE
  5
144
330
1F
100
AcDbEntity
  8
0
100
AcDbLine
 10
22.96875
 20
15.09374999999999
 30
-0.5
 11
22.96875
 21
22.90575
 31
-0.5
  0
LINE
  5
145
330
1F
100
AcDbEntity
  8
0
100
AcDbLine
 10
15.87516270189221
 20
16.91237976320957
 30
-0.5
 11
15.78141270189221
 21
16.74999999999999
 31
-0.5
  0
LINE
  5
146
330
1F
100
AcDbEntity
  8
0
100
AcDbLine
 10
16.15641270189221
 20
20.75
 30
-0.5
 11
16.06266270189221
 21
20.91237976320957
 31
-0.5
  0
LINE
  5
147
330
1F
100
AcDbEntity
  8
0
100
AcDbLine
 10
15.87516270189221
 20
20.91237976320957
 30
-0.5
 11
15.78141270189221
 21
20.75
 31
-0.5
  0
LINE
  5
148
330
1F
100
AcDbEntity
  8
0
100
AcDbLine
 10
15.87516270189221
 20
16.08762023679041
 30
-0.5
 11
16.06266270189221
 21
16.08762023679041
 31
-0.5
  0
LINE
  5
149
330
1F
100
AcDbEntity
  8
0
100
AcDbLine
 10
15.87516270189221
 20
21.08762023679041
 30
-0.5
 11
16.06266270189221
 21
21.08762023679041
 31
-0.5
  0
LINE
  5
150
330
1F
100
AcDbEntity
  8
0
100
AcDbLine
 10
15.87516270189221
 20
20.58762023679042
 30
-0.5
 11
16.06266270189221
 21
20.58762023679042
 31
-0.5
  0
LINE
  5
151
330
1F
100
AcDbEntity
  8
0
100
AcDbLine
 10
16.15641270189221
 20
21.25
 30
-0.5
 11
16.06266270189221
 21
21.41237976320958
 31
-0.5
  0
LINE
  5
152
330
1F
100
AcDbEntity
  8
0
100
AcDbLine
 10
16.15641270189221
 20
17.75
 30
-0.5
 11
16.06266270189221
 21
17.91237976320957
 31
-0.5
  0
LINE
  5
153
330
1F
100
AcDbEntity
  8
0
100
AcDbLine
 10
16.06266270189221
 20
20.58762023679042
 30
-0.5
 11
16.15641270189221
 21
20.75
 31
-0.5
  0
LINE
  5
154
330
1F
100
AcDbEntity
  8
0
100
AcDbLine
 10
15.78141270189221
 20
20.75
 30
-0.5
 11
15.87516270189221
 21
20.58762023679042
 31
-0.5
  0
LINE
  5
155
330
1F
100
AcDbEntity
  8
0
100
AcDbLine
 10
16.15641270189221
 20
16.25
 30
-0.5
 11
16.06266270189221
 21
16.41237976320957
 31
-0.5
  0
LINE
  5
156
330
1F
100
AcDbEntity
  8
0
100
AcDbLine
 10
15.87516270189221
 20
17.58762023679041
 30
-0.5
 11
16.06266270189221
 21
17.58762023679041
 31
-0.5
  0
LINE
  5
157
330
1F
100
AcDbEntity
  8
0
100
AcDbLine
 10
15.78141270189221
 20
17.75
 30
-0.5
 11
15.87516270189221
 21
17.58762023679041
 31
-0.5
  0
LINE
  5
158
330
1F
100
AcDbEntity
  8
0
100
AcDbLine
 10
15.87516270189221
 20
21.41237976320958
 30
-0.5
 11
15.78141270189221
 21
21.25
 31
-0.5
  0
LINE
  5
159
330
1F
100
AcDbEntity
  8
0
100
AcDbLine
 10
15.87516270189221
 20
17.91237976320957
 30
-0.5
 11
15.78141270189221
 21
17.75
 31
-0.5
  0
LINE
  5
160
330
1F
100
AcDbEntity
  8
0
100
AcDbLine
 10
16.06266270189221
 20
21.08762023679041
 30
-0.5
 11
16.15641270189221
 21
21.25
 31
-0.5
  0
LINE
  5
161
330
1F
100
AcDbEntity
  8
0
100
AcDbLine
 10
16.06266270189221
 20
17.58762023679041
 30
-0.5
 11
16.15641270189221
 21
17.75
 31
-0.5
  0
LINE
  5
162
330
1F
100
AcDbEntity
  8
0
100
AcDbLine
 10
15.87516270189221
 20
16.41237976320957
 30
-0.5
 11
15.78141270189221
 21
16.25
 31
-0.5
  0
LINE
  5
163
330
1F
100
AcDbEntity
  8
0
100
AcDbLine
 10
15.78141270189221
 20
18.25
 30
-0.5
 11
15.87516270189221
 21
18.08762023679041
 31
-0.5
  0
LINE
  5
164
330
1F
100
AcDbEntity
  8
0
100
AcDbLine
 10
15.78141270189221
 20
16.74999999999999
 30
-0.5
 11
15.87516270189221
 21
16.58762023679042
 31
-0.5
  0
LINE
  5
165
330
1F
100
AcDbEntity
  8
0
100
AcDbLine
 10
16.92868810567665
 20
16.91237976320957
 30
-0.5
 11
16.74118810567665
 21
16.91237976320957
 31
-0.5
  0
LINE
  5
166
330
1F
100
AcDbEntity
  8
0
100
AcDbLine
 10
16.06266270189221
 20
17.91237976320957
 30
-0.5
 11
15.87516270189221
 21
17.91237976320957
 31
-0.5
  0
LINE
  5
167
330
1F
100
AcDbEntity
  8
0
100
AcDbLine
 10
16.06266270189221
 20
16.41237976320957
 30
-0.5
 11
15.87516270189221
 21
16.41237976320957
 31
-0.5
  0
LINE
  5
168
330
1F
100
AcDbEntity
  8
0
100
AcDbLine
 10
15.87516270189221
 20
17.08762023679041
 30
-0.5
 11
16.06266270189221
 21
17.08762023679041
 31
-0.5
  0
LINE
  5
169
330
1F
100
AcDbEntity
  8
0
100
AcDbLine
 10
15.78141270189221
 20
17.24999999999999
 30
-0.5
 11
15.87516270189221
 21
17.08762023679041
 31
-0.5
  0
LINE
  5
170
330
1F
100
AcDbEntity
  8
0
100
AcDbLine
 10
16.15641270189221
 20
16.74999999999999
 30
-0.5
 11
16.06266270189221
 21
16.91237976320957
 31
-0.5
  0
LINE
  5
171
330
1F
100
AcDbEntity
  8
0
100
AcDbLine
 10
15.87516270189221
 20
18.41237976320957
 30
-0.5
 11
15.78141270189221
 21
18.25
 31
-0.5
  0
LINE
  5
172
330
1F
100
AcDbEntity
  8
0
100
AcDbLine
 10
16.92868810567665
 20
16.58762023679042
 30
-0.5
 11
17.02243810567665
 21
16.74999999999999
 31
-0.5
  0
LINE
  5
173
330
1F
100
AcDbEntity
  8
0
100
AcDbLine
 10
16.64743810567665
 20
17.24999999999999
 30
-0.5
 11
16.74118810567665
 21
17.08762023679041
 31
-0.5
  0
LINE
  5
174
330
1F
100
AcDbEntity
  8
0
100
AcDbLine
 10
17.02243810567665
 20
16.74999999999999
 30
-0.5
 11
16.92868810567665
 21
16.91237976320957
 31
-0.5
  0
LINE
  5
175
330
1F
100
AcDbEntity
  8
0
100
AcDbLine
 10
16.06266270189221
 20
16.08762023679041
 30
-0.5
 11
16.15641270189221
 21
16.25
 31
-0.5
  0
LINE
  5
176
330
1F
100
AcDbEntity
  8
0
100
AcDbLine
 10
16.06266270189221
 20
20.91237976320957
 30
-0.5
 11
15.87516270189221
 21
20.91237976320957
 31
-0.5
  0
LINE
  5
177
330
1F
100
AcDbEntity
  8
0
100
AcDbLine
 10
15.78141270189221
 20
16.25
 30
-0.5
 11
15.87516270189221
 21
16.08762023679041
 31
-0.5
  0
LINE
  5
178
330
1F
100
AcDbEntity
  8
0
100
AcDbLine
 10
15.87516270189221
 20
16.58762023679042
 30
-0.5
 11
16.06266270189221
 21
16.58762023679042
 31
-0.5
  0
LINE
  5
179
330
1F
100
AcDbEntity
  8
0
100
AcDbLine
 10
16.06266270189221
 20
16.58762023679042
 30
-0.5
 11
16.15641270189221
 21
16.74999999999999
 31
-0.5
  0
LINE
  5
180
330
1F
100
AcDbEntity
  8
0
100
AcDbLine
 10
16.74118810567665
 20
16.58762023679042
 30
-0.5
 11
16.92868810567665
 21
16.58762023679042
 31
-0.5
  0
LINE
  5
181
330
1F
100
AcDbEntity
  8
0
100
AcDbLine
 10
16.15641270189221
 20
17.24999999999999
 30
-0.5
 11
16.06266270189221
 21
17.41237976320958
 31
-0.5
  0
LINE
  5
182
330
1F
100
AcDbEntity
  8
0
100
AcDbLine
 10
18.81250161513776
 20
15.99999999999999
 30
-0.5
 11
18.90625161513776
 21
15.83762023679041
 31
-0.5
  0
LINE
  5
183
330
1F
100
AcDbEntity
  8
0
100
AcDbLine
 10
18.66073891324553
 20
21.91237976320957
 30
-0.5
 11
18.47323891324553
 21
21.91237976320957
 31
-0.5
  0
LINE
  5
184
330
1F
100
AcDbEntity
  8
0
100
AcDbLine
 10
16.06266270189221
 20
21.5876202367904
 30
-0.5
 11
16.15641270189221
 21
21.75
 31
-0.5
  0
LINE
  5
185
330
1F
100
AcDbEntity
  8
0
100
AcDbLine
 10
16.30817540378443
 20
16.16237976320957
 30
-0.5
 11
16.21442540378443
 21
15.99999999999999
 31
-0.5
  0
LINE
  5
186
330
1F
100
AcDbEntity
  8
0
100
AcDbLine
 10
15.87516270189221
 20
21.5876202367904
 30
-0.5
 11
16.06266270189221
 21
21.5876202367904
 31
-0.5
  0
LINE
  5
187
330
1F
100
AcDbEntity
  8
0
100
AcDbLine
 10
15.87516270189221
 20
21.91237976320957
 30
-0.5
 11
15.78141270189221
 21
21.75
 31
-0.5
  0
LINE
  5
188
330
1F
100
AcDbEntity
  8
0
100
AcDbLine
 10
16.06266270189221
 20
21.41237976320958
 30
-0.5
 11
15.87516270189221
 21
21.41237976320958
 31
-0.5
  0
LINE
  5
189
330
1F
100
AcDbEntity
  8
0
100
AcDbLine
 10
16.30817540378443
 20
15.83762023679041
 30
-0.5
 11
16.49567540378443
 21
15.83762023679041
 31
-0.5
  0
LINE
  5
190
330
1F
100
AcDbEntity
  8
0
100
AcDbLine
 10
17.02243810567665
 20
17.24999999999999
 30
-0.5
 11
16.92868810567665
 21
17.41237976320958
 31
-0.5
  0
LINE
  5
191
330
1F
100
AcDbEntity
  8
0
100
AcDbLine
 10
16.92868810567665
 20
17.41237976320958
 30
-0.5
 11
16.74118810567665
 21
17.41237976320958
 31
-0.5
  0
LINE
  5
192
330
1F
100
AcDbEntity
  8
0
100
AcDbLine
 10
16.49567540378443
 20
15.83762023679041
 30
-0.5
 11
16.58942540378443
 21
15.99999999999999
 31
-0.5
  0
LINE
  5
193
330
1F
100
AcDbEntity
  8
0
100
AcDbLine
 10
16.21442540378443
 20
15.99999999999999
 30
-0.5
 11
16.30817540378443
 21
15.83762023679041
 31
-0.5
  0
LINE
  5
194
330
1F
100
AcDbEntity
  8
0
100
AcDbLine
 10
15.78141270189221
 20
21.75
 30
-0.5
 11
15.87516270189221
 21
21.5876202367904
 31
-0.5
  0
LINE
  5
195
330
1F
100
AcDbEntity
  8
0
100
AcDbLine
 10
16.15641270189221
 20
21.75
 30
-0.5
 11
16.06266270189221
 21
21.91237976320957
 31
-0.5
  0
LINE
  5
196
330
1F
100
AcDbEntity
  8
0
100
AcDbLine
 10
16.06266270189221
 20
21.91237976320957
 30
-0.5
 11
15.87516270189221
 21
21.91237976320957
 31
-0.5
  0
LINE
  5
197
330
1F
100
AcDbEntity
  8
0
100
AcDbLine
 10
17.36170080756887
 20
16.33762023679041
 30
-0.5
 11
17.45545080756887
 21
16.49999999999999
 31
-0.5
  0
LINE
  5
198
330
1F
100
AcDbEntity
  8
0
100
AcDbLine
 10
17.45545080756887
 20
16.49999999999999
 30
-0.5
 11
17.36170080756887
 21
16.66237976320958
 31
-0.5
  0
LINE
  5
199
330
1F
100
AcDbEntity
  8
0
100
AcDbLine
 10
17.17420080756887
 20
21.33762023679041
 30
-0.5
 11
17.36170080756887
 21
21.33762023679041
 31
-0.5
  0
LINE
  5
200
330
1F
100
AcDbEntity
  8
0
100
AcDbLine
 10
18.37948891324553
 20
19.75
 30
-0.5
 11
18.47323891324553
 21
19.58762023679041
 31
-0.5
  0
LINE
  5
201
330
1F
100
AcDbEntity
  8
0
100
AcDbLine
 10
16.64743810567665
 20
21.75
 30
-0.5
 11
16.74118810567665
 21
21.5876202367904
 31
-0.5
  0
LINE
  5
202
330
1F
100
AcDbEntity
  8
0
100
AcDbLine
 10
16.30817540378443
 20
17.16237976320957
 30
-0.5
 11
16.21442540378443
 21
17.0
 31
-0.5
  0
LINE
  5
203
330
1F
100
AcDbEntity
  8
0
100
AcDbLine
 10
17.5134635094611
 20
18.25
 30
-0.5
 11
17.60721350946109
 21
18.08762023679041
 31
-0.5
  0
LINE
  5
204
330
1F
100
AcDbEntity
  8
0
100
AcDbLine
 10
17.94647621135332
 20
20.5
 30
-0.5
 11
18.04022621135332
 21
20.33762023679042
 31
-0.5
  0
LINE
  5
205
330
1F
100
AcDbEntity
  8
0
100
AcDbLine
 10
16.49567540378443
 20
20.16237976320958
 30
-0.5
 11
16.30817540378443
 21
20.16237976320958
 31
-0.5
  0
LINE
  5
206
330
1F
100
AcDbEntity
  8
0
100
AcDbLine
 10
17.17420080756887
 20
22.16237976320957
 30
-0.5
 11
17.08045080756887
 21
22.0
 31
-0.5
  0
LINE
  5
207
330
1F
100
AcDbEntity
  8
0
100
AcDbLine
 10
17.36170080756887
 20
19.33762023679041
 30
-0.5
 11
17.45545080756887
 21
19.5
 31
-0.5
  0
LINE
  5
208
330
1F
100
AcDbEntity
  8
0
100
AcDbLine
 10
18.04022621135332
 20
21.8376202367904
 30
-0.5
 11
18.22772621135332
 21
21.8376202367904
 31
-0.5
  0
LINE
  5
209
330
1F
100
AcDbEntity
  8
0
100
AcDbLine
 10
18.22772621135332
 20
18.33762023679041
 30
-0.5
 11
18.32147621135332
 21
18.5
 31
-0.5
  0
LINE
  5
210
330
1F
100
AcDbEntity
  8
0
100
AcDbLine
 10
17.88846350946109
 20
21.25
 30
-0.5
 11
17.79471350946109
 21
21.41237976320958
 31
-0.5
  0
LINE
  5
211
330
1F
100
AcDbEntity
  8
0
100
AcDbLine
 10
18.47323891324553
 20
19.58762023679041
 30
-0.5
 11
18.66073891324553
 21
19.58762023679041
 31
-0.5
  0
LINE
  5
212
330
1F
100
AcDbEntity
  8
0
100
AcDbLine
 10
17.60721350946109
 20
18.58762023679041
 30
-0.5
 11
17.79471350946109
 21
18.58762023679041
 31
-0.5
  0
LINE
  5
213
330
1F
100
AcDbEntity
  8
0
100
AcDbLine
 10
17.60721350946109
 20
17.41237976320958
 30
-0.5
 11
17.5134635094611
 21
17.24999999999999
 31
-0.5
  0
LINE
  5
214
330
1F
100
AcDbEntity
  8
0
100
AcDbLine
 10
17.94647621135332
 20
22.0
 30
-0.5
 11
18.04022621135332
 21
21.8376202367904
 31
-0.5
  0
LINE
  5
215
330
1F
100
AcDbEntity
  8
0
100
AcDbLine
 10
17.5134635094611
 20
18.75
 30
-0.5
 11
17.60721350946109
 21
18.58762023679041
 31
-0.5
  0
LINE
  5
216
330
1F
100
AcDbEntity
  8
0
100
AcDbLine
 10
18.75448891324553
 20
20.25
 30
-0.5
 11
18.66073891324553
 21
20.41237976320958
 31
-0.5
  0
LINE
  5
217
330
1F
100
AcDbEntity
  8
0
100
AcDbLine
 10
18.22772621135332
 20
18.16237976320957
 30
-0.5
 11
18.04022621135332
 21
18.16237976320957
 31
-0.5
  0
LINE
  5
218
330
1F
100
AcDbEntity
  8
0
100
AcDbLine
 10
16.30817540378443
 20
20.83762023679041
 30
-0.5
 11
16.49567540378443
 21
20.83762023679041
 31
-0.5
  0
LINE
  5
219
330
1F
100
AcDbEntity
  8
0
100
AcDbLine
 10
18.22772621135332
 20
20.83762023679041
 30
-0.5
 11
18.32147621135332
 21
21.0
 31
-0.5
  0
LINE
  5
220
330
1F
100
AcDbEntity
  8
0
100
AcDbLine
 10
16.21442540378443
 20
19.0
 30
-0.5
 11
16.30817540378443
 21
18.83762023679041
 31
-0.5
  0
LINE
  5
221
330
1F
100
AcDbEntity
  8
0
100
AcDbLine
 10
16.21442540378443
 20
18.5
 30
-0.5
 11
16.30817540378443
 21
18.33762023679041
 31
-0.5
  0
LINE
  5
222
330
1F
100
AcDbEntity
  8
0
100
AcDbLine
 10
16.49567540378443
 20
20.33762023679042
 30
-0.5
 11
16.58942540378443
 21
20.5
 31
-0.5
  0
LINE
  5
223
330
1F
100
AcDbEntity
  8
0
100
AcDbLine
 10
17.60721350946109
 20
18.41237976320957
 30
-0.5
 11
17.5134635094611
 21
18.25
 31
-0.5
  0
LINE
  5
224
330
1F
100
AcDbEntity
  8
0
100
AcDbLine
 10
17.88846350946109
 20
21.75
 30
-0.5
 11
17.79471350946109
 21
21.91237976320957
 31
-0.5
  0
LINE
  5
225
330
1F
100
AcDbEntity
  8
0
100
AcDbLine
 10
16.58942540378443
 20
20.5
 30
-0.5
 11
16.49567540378443
 21
20.66237976320957
 31
-0.5
  0
LINE
  5
226
330
1F
100
AcDbEntity
  8
0
100
AcDbLine
 10
16.30817540378443
 20
20.66237976320957
 30
-0.5
 11
16.21442540378443
 21
20.5
 31
-0.5
  0
LINE
  5
227
330
1F
100
AcDbEntity
  8
0
100
AcDbLine
 10
18.04022621135332
 20
19.33762023679041
 30
-0.5
 11
18.22772621135332
 21
19.33762023679041
 31
-0.5
  0
LINE
  5
228
330
1F
100
AcDbEntity
  8
0
100
AcDbLine
 10
16.30817540378443
 20
20.16237976320958
 30
-0.5
 11
16.21442540378443
 21
20.0
 31
-0.5
  0
LINE
  5
229
330
1F
100
AcDbEntity
  8
0
100
AcDbLine
 10
16.30817540378443
 20
18.33762023679041
 30
-0.5
 11
16.49567540378443
 21
18.33762023679041
 31
-0.5
  0
LINE
  5
230
330
1F
100
AcDbEntity
  8
0
100
AcDbLine
 10
17.36170080756887
 20
22.16237976320957
 30
-0.5
 11
17.17420080756887
 21
22.16237976320957
 31
-0.5
  0
LINE
  5
231
330
1F
100
AcDbEntity
  8
0
100
AcDbLine
 10
17.79471350946109
 20
21.08762023679041
 30
-0.5
 11
17.88846350946109
 21
21.25
 31
-0.5
  0
LINE
  5
232
330
1F
100
AcDbEntity
  8
0
100
AcDbLine
 10
16.21442540378443
 20
22.0
 30
-0.5
 11
16.30817540378443
 21
21.8376202367904
 31
-0.5
  0
LINE
  5
233
330
1F
100
AcDbEntity
  8
0
100
AcDbLine
 10
16.49567540378443
 20
21.33762023679041
 30
-0.5
 11
16.58942540378443
 21
21.5
 31
-0.5
  0
LINE
  5
234
330
1F
100
AcDbEntity
  8
0
100
AcDbLine
 10
16.21442540378443
 20
19.5
 30
-0.5
 11
16.30817540378443
 21
19.33762023679041
 31
-0.5
  0
LINE
  5
235
330
1F
100
AcDbEntity
  8
0
100
AcDbLine
 10
16.74118810567665
 20
16.41237976320957
 30
-0.5
 11
16.64743810567665
 21
16.25
 31
-0.5
  0
LINE
  5
236
330
1F
100
AcDbEntity
  8
0
100
AcDbLine
 10
18.66073891324553
 20
17.58762023679041
 30
-0.5
 11
18.75448891324553
 21
17.75
 31
-0.5
  0
LINE
  5
237
330
1F
100
AcDbEntity
  8
0
100
AcDbLine
 10
16.74118810567665
 20
18.91237976320957
 30
-0.5
 11
16.64743810567665
 21
18.75
 31
-0.5
  0
LINE
  5
238
330
1F
100
AcDbEntity
  8
0
100
AcDbLine
 10
16.58942540378443
 20
21.5
 30
-0.5
 11
16.49567540378443
 21
21.66237976320957
 31
-0.5
  0
LINE
  5
239
330
1F
100
AcDbEntity
  8
0
100
AcDbLine
 10
18.37948891324553
 20
16.74999999999999
 30
-0.5
 11
18.47323891324553
 21
16.58762023679042
 31
-0.5
  0
LINE
  5
240
330
1F
100
AcDbEntity
  8
0
100
AcDbLine
 10
17.17420080756887
 20
19.66237976320957
 30
-0.5
 11
17.08045080756887
 21
19.5
 31
-0.5
  0
LINE
  5
241
330
1F
100
AcDbEntity
  8
0
100
AcDbLine
 10
18.47323891324553
 20
18.08762023679041
 30
-0.5
 11
18.66073891324553
 21
18.08762023679041
 31
-0.5
  0
LINE
  5
242
330
1F
100
AcDbEntity
  8
0
100
AcDbLine
 10
18.66073891324553
 20
19.91237976320957
 30
-0.5
 11
18.47323891324553
 21
19.91237976320957
 31
-0.5
  0
LINE
  5
243
330
1F
100
AcDbEntity
  8
0
100
AcDbLine
 10
17.79471350946109
 20
18.91237976320957
 30
-0.5
 11
17.60721350946109
 21
18.91237976320957
 31
-0.5
  0
LINE
  5
244
330
1F
100
AcDbEntity
  8
0
100
AcDbLine
 10
16.49567540378443
 20
17.16237976320957
 30
-0.5
 11
16.30817540378443
 21
17.16237976320957
 31
-0.5
  0
LINE
  5
245
330
1F
100
AcDbEntity
  8
0
100
AcDbLine
 10
17.79471350946109
 20
18.58762023679041
 30
-0.5
 11
17.88846350946109
 21
18.75
 31
-0.5
  0
LINE
  5
246
330
1F
100
AcDbEntity
  8
0
100
AcDbLine
 10
17.88846350946109
 20
16.25
 30
-0.5
 11
17.79471350946109
 21
16.41237976320957
 31
-0.5
  0
LINE
  5
247
330
1F
100
AcDbEntity
  8
0
100
AcDbLine
 10
16.21442540378443
 20
20.0
 30
-0.5
 11
16.30817540378443
 21
19.83762023679041
 31
-0.5
  0
LINE
  5
248
330
1F
100
AcDbEntity
  8
0
100
AcDbLine
 10
18.66073891324553
 20
18.08762023679041
 30
-0.5
 11
18.75448891324553
 21
18.25
 31
-0.5
  0
LINE
  5
249
330
1F
100
AcDbEntity
  8
0
100
AcDbLine
 10
17.60721350946109
 20
17.91237976320957
 30
-0.5
 11
17.5134635094611
 21
17.75
 31
-0.5
  0
LINE
  5
250
330
1F
100
AcDbEntity
  8
0
100
AcDbLine
 10
17.79471350946109
 20
19.41237976320957
 30
-0.5
 11
17.60721350946109
 21
19.41237976320957
 31
-0.5
  0
LINE
  5
251
330
1F
100
AcDbEntity
  8
0
100
AcDbLine
 10
16.21442540378443
 20
17.49999999999999
 30
-0.5
 11
16.30817540378443
 21
17.33762023679042
 31
-0.5
  0
LINE
  5
252
330
1F
100
AcDbEntity
  8
0
100
AcDbLine
 10
16.49567540378443
 20
18.16237976320957
 30
-0.5
 11
16.30817540378443
 21
18.16237976320957
 31
-0.5
  0
LINE
  5
253
330
1F
100
AcDbEntity
  8
0
100
AcDbLine
 10
18.66073891324553
 20
19.41237976320957
 30
-0.5
 11
18.47323891324553
 21
19.41237976320957
 31
-0.5
  0
LINE
  5
254
330
1F
100
AcDbEntity
  8
0
100
AcDbLine
 10
16.30817540378443
 20
21.16237976320958
 30
-0.5
 11
16.21442540378443
 21
21.0
 31
-0.5
  0
LINE
  5
255
330
1F
100
AcDbEntity
  8
0
100
AcDbLine
 10
18.47323891324553
 20
20.58762023679042
 30
-0.5
 11
18.66073891324553
 21
20.58762023679042
 31
-0.5
  0
LINE
  5
256
330
1F
100
AcDbEntity
  8
0
100
AcDbLine
 10
17.79471350946109
 20
21.91237976320957
 30
-0.5
 11
17.60721350946109
 21
21.91237976320957
 31
-0.5
  0
LINE
  5
257
330
1F
100
AcDbEntity
  8
0
100
AcDbLine
 10
17.79471350946109
 20
17.91237976320957
 30
-0.5
 11
17.60721350946109
 21
17.91237976320957
 31
-0.5
  0
LINE
  5
258
330
1F
100
AcDbEntity
  8
0
100
AcDbLine
 10
18.32147621135332
 20
19.5
 30
-0.5
 11
18.22772621135332
 21
19.66237976320957
 31
-0.5
  0
LINE
  5
259
330
1F
100
AcDbEntity
  8
0
100
AcDbLine
 10
18.37948891324553
 20
18.25
 30
-0.5
 11
18.47323891324553
 21
18.08762023679041
 31
-0.5
  0
LINE
  5
260
330
1F
100
AcDbEntity
  8
0
100
AcDbLine
 10
16.30817540378443
 20
21.8376202367904
 30
-0.5
 11
16.49567540378443
 21
21.8376202367904
 31
-0.5
  0
LINE
  5
261
330
1F
100
AcDbEntity
  8
0
100
AcDbLine
 10
16.49567540378443
 20
19.83762023679041
 30
-0.5
 11
16.58942540378443
 21
20.0
 31
-0.5
  0
LINE
  5
262
330
1F
100
AcDbEntity
  8
0
100
AcDbLine
 10
17.60721350946109
 20
19.08762023679041
 30
-0.5
 11
17.79471350946109
 21
19.08762023679041
 31
-0.5
  0
LINE
  5
263
330
1F
100
AcDbEntity
  8
0
100
AcDbLine
 10
17.45545080756887
 20
19.0
 30
-0.5
 11
17.36170080756887
 21
19.16237976320957
 31
-0.5
  0
LINE
  5
264
330
1F
100
AcDbEntity
  8
0
100
AcDbLine
 10
16.58942540378443
 20
20.0
 30
-0.5
 11
16.49567540378443
 21
20.16237976320958
 31
-0.5
  0
LINE
  5
265
330
1F
100
AcDbEntity
  8
0
100
AcDbLine
 10
16.30817540378443
 20
18.83762023679041
 30
-0.5
 11
16.49567540378443
 21
18.83762023679041
 31
-0.5
  0
LINE
  5
266
330
1F
100
AcDbEntity
  8
0
100
AcDbLine
 10
16.30817540378443
 20
18.16237976320957
 30
-0.5
 11
16.21442540378443
 21
18.0
 31
-0.5
  0
LINE
  5
267
330
1F
100
AcDbEntity
  8
0
100
AcDbLine
 10
16.58942540378443
 20
22.0
 30
-0.5
 11
16.49567540378443
 21
22.16237976320957
 31
-0.5
  0
LINE
  5
268
330
1F
100
AcDbEntity
  8
0
100
AcDbLine
 10
16.49567540378443
 20
20.83762023679041
 30
-0.5
 11
16.58942540378443
 21
21.0
 31
-0.5
  0
LINE
  5
269
330
1F
100
AcDbEntity
  8
0
100
AcDbLine
 10
18.04022621135332
 20
21.66237976320957
 30
-0.5
 11
17.94647621135332
 21
21.5
 31
-0.5
  0
LINE
  5
270
330
1F
100
AcDbEntity
  8
0
100
AcDbLine
 10
18.66073891324553
 20
18.58762023679041
 30
-0.5
 11
18.75448891324553
 21
18.75
 31
-0.5
  0
LINE
  5
271
330
1F
100
AcDbEntity
  8
0
100
AcDbLine
 10
17.60721350946109
 20
17.08762023679041
 30
-0.5
 11
17.79471350946109
 21
17.08762023679041
 31
-0.5
  0
LINE
  5
272
330
1F
100
AcDbEntity
  8
0
100
AcDbLine
 10
18.66073891324553
 20
17.41237976320958
 30
-0.5
 11
18.47323891324553
 21
17.41237976320958
 31
-0.5
  0
LINE
  5
273
330
1F
100
AcDbEntity
  8
0
100
AcDbLine
 10
17.94647621135332
 20
17.49999999999999
 30
-0.5
 11
18.04022621135332
 21
17.33762023679042
 31
-0.5
  0
LINE
  5
274
330
1F
100
AcDbEntity
  8
0
100
AcDbLine
 10
17.60721350946109
 20
21.91237976320957
 30
-0.5
 11
17.5134635094611
 21
21.75
 31
-0.5
  0
LINE
  5
275
330
1F
100
AcDbEntity
  8
0
100
AcDbLine
 10
18.66073891324553
 20
16.08762023679041
 30
-0.5
 11
18.75448891324553
 21
16.25
 31
-0.5
  0
LINE
  5
276
330
1F
100
AcDbEntity
  8
0
100
AcDbLine
 10
17.5134635094611
 20
21.75
 30
-0.5
 11
17.60721350946109
 21
21.5876202367904
 31
-0.5
  0
LINE
  5
277
330
1F
100
AcDbEntity
  8
0
100
AcDbLine
 10
16.30817540378443
 20
19.16237976320957
 30
-0.5
 11
16.21442540378443
 21
19.0
 31
-0.5
  0
LINE
  5
278
330
1F
100
AcDbEntity
  8
0
100
AcDbLine
 10
17.08045080756887
 20
17.0
 30
-0.5
 11
17.17420080756887
 21
16.83762023679041
 31
-0.5
  0
LINE
  5
279
330
1F
100
AcDbEntity
  8
0
100
AcDbLine
 10
17.60721350946109
 20
21.5876202367904
 30
-0.5
 11
17.79471350946109
 21
21.5876202367904
 31
-0.5
  0
LINE
  5
280
330
1F
100
AcDbEntity
  8
0
100
AcDbLine
 10
18.04022621135332
 20
21.33762023679041
 30
-0.5
 11
18.22772621135332
 21
21.33762023679041
 31
-0.5
  0
LINE
  5
281
330
1F
100
AcDbEntity
  8
0
100
AcDbLine
 10
17.60721350946109
 20
19.41237976320957
 30
-0.5
 11
17.5134635094611
 21
19.25
 31
-0.5
  0
LINE
  5
282
330
1F
100
AcDbEntity
  8
0
100
AcDbLine
 10
16.49567540378443
 20
22.16237976320957
 30
-0.5
 11
16.30817540378443
 21
22.16237976320957
 31
-0.5
  0
LINE
  5
283
330
1F
100
AcDbEntity
  8
0
100
AcDbLine
 10
17.17420080756887
 20
18.66237976320957
 30
-0.5
 11
17.08045080756887
 21
18.5
 31
-0.5
  0
LINE
  5
284
330
1F
100
AcDbEntity
  8
0
100
AcDbLine
 10
17.17420080756887
 20
17.16237976320957
 30
-0.5
 11
17.08045080756887
 21
17.0
 31
-0.5
  0
LINE
  5
285
330
1F
100
AcDbEntity
  8
0
100
AcDbLine
 10
17.79471350946109
 20
21.5876202367904
 30
-0.5
 11
17.88846350946109
 21
21.75
 31
-0.5
  0
LINE
  5
286
330
1F
100
AcDbEntity
  8
0
100
AcDbLine
 10
16.21442540378443
 20
18.0
 30
-0.5
 11
16.30817540378443
 21
17.83762023679041
 31
-0.5
  0
LINE
  5
287
330
1F
100
AcDbEntity
  8
0
100
AcDbLine
 10
16.30817540378443
 20
19.83762023679041
 30
-0.5
 11
16.49567540378443
 21
19.83762023679041
 31
-0.5
  0
LINE
  5
288
330
1F
100
AcDbEntity
  8
0
100
AcDbLine
 10
18.66073891324553
 20
16.41237976320957
 30
-0.5
 11
18.47323891324553
 21
16.41237976320957
 31
-0.5
  0
LINE
  5
289
330
1F
100
AcDbEntity
  8
0
100
AcDbLine
 10
18.32147621135332
 20
20.0
 30
-0.5
 11
18.22772621135332
 21
20.16237976320958
 31
-0.5
  0
LINE
  5
290
330
1F
100
AcDbEntity
  8
0
100
AcDbLine
 10
17.36170080756887
 20
18.33762023679041
 30
-0.5
 11
17.45545080756887
 21
18.5
 31
-0.5
  0
LINE
  5
291
330
1F
100
AcDbEntity
  8
0
100
AcDbLine
 10
16.74118810567665
 20
21.41237976320958
 30
-0.5
 11
16.64743810567665
 21
21.25
 31
-0.5
  0
LINE
  5
292
330
1F
100
AcDbEntity
  8
0
100
AcDbLine
 10
16.49567540378443
 20
18.83762023679041
 30
-0.5
 11
16.58942540378443
 21
19.0
 31
-0.5
  0
LINE
  5
293
330
1F
100
AcDbEntity
  8
0
100
AcDbLine
 10
18.37948891324553
 20
20.25
 30
-0.5
 11
18.47323891324553
 21
20.08762023679041
 31
-0.5
  0
LINE
  5
294
330
1F
100
AcDbEntity
  8
0
100
AcDbLine
 10
16.49567540378443
 20
19.33762023679041
 30
-0.5
 11
16.58942540378443
 21
19.5
 31
-0.5
  0
LINE
  5
295
330
1F
100
AcDbEntity
  8
0
100
AcDbLine
 10
18.66073891324553
 20
19.58762023679041
 30
-0.5
 11
18.75448891324553
 21
19.75
 31
-0.5
  0
LINE
  5
296
330
1F
100
AcDbEntity
  8
0
100
AcDbLine
 10
16.49567540378443
 20
18.33762023679041
 30
-0.5
 11
16.58942540378443
 21
18.5
 31
-0.5
  0
LINE
  5
297
330
1F
100
AcDbEntity
  8
0
100
AcDbLine
 10
17.79471350946109
 20
16.58762023679042
 30
-0.5
 11
17.88846350946109
 21
16.74999999999999
 31
-0.5
  0
LINE
  5
298
330
1F
100
AcDbEntity
  8
0
100
AcDbLine
 10
16.21442540378443
 20
21.5
 30
-0.5
 11
16.30817540378443
 21
21.33762023679041
 31
-0.5
  0
LINE
  5
299
330
1F
100
AcDbEntity
  8
0
100
AcDbLine
 10
18.04022621135332
 20
22.16237976320957
 30
-0.5
 11
17.94647621135332
 21
22.0
 31
-0.5
  0
LINE
  5
300
330
1F
100
AcDbEntity
  8
0
100
AcDbLine
 10
17.94647621135332
 20
20.0
 30
-0.5
 11
18.04022621135332
 21
19.83762023679041
 31
-0.5
  0
LINE
  5
301
330
1F
100
AcDbEntity
  8
0
100
AcDbLine
 10
16.30817540378443
 20
19.33762023679041
 30
-0.5
 11
16.49567540378443
 21
19.33762023679041
 31
-0.5
  0
LINE
  5
302
330
1F
100
AcDbEntity
  8
0
100
AcDbLine
 10
18.04022621135332
 20
17.66237976320958
 30
-0.5
 11
17.94647621135332
 21
17.49999999999999
 31
-0.5
  0
LINE
  5
303
330
1F
100
AcDbEntity
  8
0
100
AcDbLine
 10
16.58942540378443
 20
19.5
 30
-0.5
 11
16.49567540378443
 21
19.66237976320957
 31
-0.5
  0
LINE
  5
304
330
1F
100
AcDbEntity
  8
0
100
AcDbLine
 10
16.64743810567665
 20
16.25
 30
-0.5
 11
16.74118810567665
 21
16.08762023679041
 31
-0.5
  0
LINE
  5
305
330
1F
100
AcDbEntity
  8
0
100
AcDbLine
 10
16.58942540378443
 20
19.0
 30
-0.5
 11
16.49567540378443
 21
19.16237976320957
 31
-0.5
  0
LINE
  5
306
330
1F
100
AcDbEntity
  8
0
100
AcDbLine
 10
16.49567540378443
 20
19.66237976320957
 30
-0.5
 11
16.30817540378443
 21
19.66237976320957
 31
-0.5
  0
LINE
  5
307
330
1F
100
AcDbEntity
  8
0
100
AcDbLine
 10
17.94647621135332
 20
19.0
 30
-0.5
 11
18.04022621135332
 21
18.83762023679041
 31
-0.5
  0
LINE
  5
308
330
1F
100
AcDbEntity
  8
0
100
AcDbLine
 10
18.04022621135332
 20
19.66237976320957
 30
-0.5
 11
17.94647621135332
 21
19.5
 31
-0.5
  0
LINE
  5
309
330
1F
100
AcDbEntity
  8
0
100
AcDbLine
 10
18.22772621135332
 20
20.33762023679042
 30
-0.5
 11
18.32147621135332
 21
20.5
 31
-0.5
  0
LINE
  5
310
330
1F
100
AcDbEntity
  8
0
100
AcDbLine
 10
18.22772621135332
 20
19.33762023679041
 30
-0.5
 11
18.32147621135332
 21
19.5
 31
-0.5
  0
LINE
  5
311
330
1F
100
AcDbEntity
  8
0
100
AcDbLine
 10
18.66073891324553
 20
20.41237976320958
 30
-0.5
 11
18.47323891324553
 21
20.41237976320958
 31
-0.5
  0
LINE
  5
312
330
1F
100
AcDbEntity
  8
0
100
AcDbLine
 10
16.30817540378443
 20
21.33762023679041
 30
-0.5
 11
16.49567540378443
 21
21.33762023679041
 31
-0.5
  0
LINE
  5
313
330
1F
100
AcDbEntity
  8
0
100
AcDbLine
 10
16.30817540378443
 20
17.66237976320958
 30
-0.5
 11
16.21442540378443
 21
17.49999999999999
 31
-0.5
  0
LINE
  5
314
330
1F
100
AcDbEntity
  8
0
100
AcDbLine
 10
17.5134635094611
 20
16.74999999999999
 30
-0.5
 11
17.60721350946109
 21
16.58762023679042
 31
-0.5
  0
LINE
  5
315
330
1F
100
AcDbEntity
  8
0
100
AcDbLine
 10
17.5134635094611
 20
19.75
 30
-0.5
 11
17.60721350946109
 21
19.58762023679041
 31
-0.5
  0
LINE
  5
316
330
1F
100
AcDbEntity
  8
0
100
AcDbLine
 10
17.17420080756887
 20
17.33762023679042
 30
-0.5
 11
17.36170080756887
 21
17.33762023679042
 31
-0.5
  0
LINE
  5
317
330
1F
100
AcDbEntity
  8
0
100
AcDbLine
 10
16.58942540378443
 20
21.0
 30
-0.5
 11
16.49567540378443
 21
21.16237976320958
 31
-0.5
  0
LINE
  5
318
330
1F
100
AcDbEntity
  8
0
100
AcDbLine
 10
16.21442540378443
 20
21.0
 30
-0.5
 11
16.30817540378443
 21
20.83762023679041
 31
-0.5
  0
LINE
  5
319
330
1F
100
AcDbEntity
  8
0
100
AcDbLine
 10
17.79471350946109
 20
21.41237976320958
 30
-0.5
 11
17.60721350946109
 21
21.41237976320958
 31
-0.5
  0
LINE
  5
320
330
1F
100
AcDbEntity
  8
0
100
AcDbLine
 10
17.45545080756887
 20
22.0
 30
-0.5
 11
17.36170080756887
 21
22.16237976320957
 31
-0.5
  0
LINE
  5
321
330
1F
100
AcDbEntity
  8
0
100
AcDbLine
 10
18.47323891324553
 20
20.08762023679041
 30
-0.5
 11
18.66073891324553
 21
20.08762023679041
 31
-0.5
  0
LINE
  5
322
330
1F
100
AcDbEntity
  8
0
100
AcDbLine
 10
16.49567540378443
 20
17.66237976320958
 30
-0.5
 11
16.30817540378443
 21
17.66237976320958
 31
-0.5
  0
LINE
  5
323
330
1F
100
AcDbEntity
  8
0
100
AcDbLine
 10
17.88846350946109
 20
19.25
 30
-0.5
 11
17.79471350946109
 21
19.41237976320957
 31
-0.5
  0
LINE
  5
324
330
1F
100
AcDbEntity
  8
0
100
AcDbLine
 10
18.47323891324553
 20
19.41237976320957
 30
-0.5
 11
18.37948891324553
 21
19.25
 31
-0.5
  0
LINE
  5
325
330
1F
100
AcDbEntity
  8
0
100
AcDbLine
 10
16.30817540378443
 20
19.66237976320957
 30
-0.5
 11
16.21442540378443
 21
19.5
 31
-0.5
  0
LINE
  5
326
330
1F
100
AcDbEntity
  8
0
100
AcDbLine
 10
17.60721350946109
 20
16.41237976320957
 30
-0.5
 11
17.5134635094611
 21
16.25
 31
-0.5
  0
LINE
  5
327
330
1F
100
AcDbEntity
  8
0
100
AcDbLine
 10
18.32147621135332
 20
20.5
 30
-0.5
 11
18.22772621135332
 21
20.66237976320957
 31
-0.5
  0
LINE
  5
328
330
1F
100
AcDbEntity
  8
0
100
AcDbLine
 10
16.92868810567665
 20
21.91237976320957
 30
-0.5
 11
16.74118810567665
 21
21.91237976320957
 31
-0.5
  0
LINE
  5
329
330
1F
100
AcDbEntity
  8
0
100
AcDbLine
 10
18.47323891324553
 20
18.91237976320957
 30
-0.5
 11
18.37948891324553
 21
18.75
 31
-0.5
  0
LINE
  5
330
330
1F
100
AcDbEntity
  8
0
100
AcDbLine
 10
17.17420080756887
 20
20.83762023679041
 30
-0.5
 11
17.36170080756887
 21
20.83762023679041
 31
-0.5
  0
LINE
  5
331
330
1F
100
AcDbEntity
  8
0
100
AcDbLine
 10
16.92868810567665
 20
19.58762023679041
 30
-0.5
 11
17.02243810567665
 21
19.75
 31
-0.5
  0
LINE
  5
332
330
1F
100
AcDbEntity
  8
0
100
AcDbLine
 10
17.36170080756887
 20
16.83762023679041
 30
-0.5
 11
17.45545080756887
 21
17.0
 31
-0.5
  0
LINE
  5
333
330
1F
100
AcDbEntity
  8
0
100
AcDbLine
 10
16.74118810567665
 20
17.58762023679041
 30
-0.5
 11
16.92868810567665
 21
17.58762023679041
 31
-0.5
  0
LINE
  5
334
330
1F
100
AcDbEntity
  8
0
100
AcDbLine
 10
18.22772621135332
 20
19.66237976320957
 30
-0.5
 11
18.04022621135332
 21
19.66237976320957
 31
-0.5
  0
LINE
  5
335
330
1F
100
AcDbEntity
  8
0
100
AcDbLine
 10
16.92868810567665
 20
18.58762023679041
 30
-0.5
 11
17.02243810567665
 21
18.75
 31
-0.5
  0
LINE
  5
336
330
1F
100
AcDbEntity
  8
0
100
AcDbLine
 10
17.17420080756887
 20
19.16237976320957
 30
-0.5
 11
17.08045080756887
 21
19.0
 31
-0.5
  0
LINE
  5
337
330
1F
100
AcDbEntity
  8
0
100
AcDbLine
 10
16.92868810567665
 20
18.91237976320957
 30
-0.5
 11
16.74118810567665
 21
18.91237976320957
 31
-0.5
  0
LINE
  5
338
330
1F
100
AcDbEntity
  8
0
100
AcDbLine
 10
16.92868810567665
 20
20.41237976320958
 30
-0.5
 11
16.74118810567665
 21
20.41237976320958
 31
-0.5
  0
LINE
  5
339
330
1F
100
AcDbEntity
  8
0
100
AcDbLine
 10
18.22772621135332
 20
16.33762023679041
 30
-0.5
 11
18.32147621135332
 21
16.49999999999999
 31
-0.5
  0
LINE
  5
340
330
1F
100
AcDbEntity
  8
0
100
AcDbLine
 10
17.17420080756887
 20
18.83762023679041
 30
-0.5
 11
17.36170080756887
 21
18.83762023679041
 31
-0.5
  0
LINE
  5
341
330
1F
100
AcDbEntity
  8
0
100
AcDbLine
 10
18.32147621135332
 20
22.0
 30
-0.5
 11
18.22772621135332
 21
22.16237976320957
 31
-0.5
  0
LINE
  5
342
330
1F
100
AcDbEntity
  8
0
100
AcDbLine
 10
16.74118810567665
 20
19.08762023679041
 30
-0.5
 11
16.92868810567665
 21
19.08762023679041
 31
-0.5
  0
LINE
  5
343
330
1F
100
AcDbEntity
  8
0
100
AcDbLine
 10
17.17420080756887
 20
21.66237976320957
 30
-0.5
 11
17.08045080756887
 21
21.5
 31
-0.5
  0
LINE
  5
344
330
1F
100
AcDbEntity
  8
0
100
AcDbLine
 10
17.60721350946109
 20
18.08762023679041
 30
-0.5
 11
17.79471350946109
 21
18.08762023679041
 31
-0.5
  0
LINE
  5
345
330
1F
100
AcDbEntity
  8
0
100
AcDbLine
 10
18.04022621135332
 20
18.33762023679041
 30
-0.5
 11
18.22772621135332
 21
18.33762023679041
 31
-0.5
  0
LINE
  5
346
330
1F
100
AcDbEntity
  8
0
100
AcDbLine
 10
18.66073891324553
 20
17.08762023679041
 30
-0.5
 11
18.75448891324553
 21
17.24999999999999
 31
-0.5
  0
LINE
  5
347
330
1F
100
AcDbEntity
  8
0
100
AcDbLine
 10
18.37948891324553
 20
16.25
 30
-0.5
 11
18.47323891324553
 21
16.08762023679041
 31
-0.5
  0
LINE
  5
348
330
1F
100
AcDbEntity
  8
0
100
AcDbLine
 10
16.30817540378443
 20
18.66237976320957
 30
-0.5
 11
16.21442540378443
 21
18.5
 31
-0.5
  0
LINE
  5
349
330
1F
100
AcDbEntity
  8
0
100
AcDbLine
 10
17.94647621135332
 20
15.99999999999999
 30
-0.5
 11
18.04022621135332
 21
15.83762023679041
 31
-0.5
  0
LINE
  5
350
330
1F
100
AcDbEntity
  8
0
100
AcDbLine
 10
18.66073891324553
 20
16.58762023679042
 30
-0.5
 11
18.75448891324553
 21
16.74999999999999
 31
-0.5
  0
LINE
  5
351
330
1F
100
AcDbEntity
  8
0
100
AcDbLine
 10
17.17420080756887
 20
16.83762023679041
 30
-0.5
 11
17.36170080756887
 21
16.83762023679041
 31
-0.5
  0
LINE
  5
352
330
1F
100
AcDbEntity
  8
0
100
AcDbLine
 10
17.36170080756887
 20
17.33762023679042
 30
-0.5
 11
17.45545080756887
 21
17.49999999999999
 31
-0.5
  0
LINE
  5
353
330
1F
100
AcDbEntity
  8
0
100
AcDbLine
 10
17.60721350946109
 20
20.08762023679041
 30
-0.5
 11
17.79471350946109
 21
20.08762023679041
 31
-0.5
  0
LINE
  5
354
330
1F
100
AcDbEntity
  8
0
100
AcDbLine
 10
16.92868810567665
 20
20.91237976320957
 30
-0.5
 11
16.74118810567665
 21
20.91237976320957
 31
-0.5
  0
LINE
  5
355
330
1F
100
AcDbEntity
  8
0
100
AcDbLine
 10
17.08045080756887
 20
18.5
 30
-0.5
 11
17.17420080756887
 21
18.33762023679041
 31
-0.5
  0
LINE
  5
356
330
1F
100
AcDbEntity
  8
0
100
AcDbLine
 10
16.74118810567665
 20
20.41237976320958
 30
-0.5
 11
16.64743810567665
 21
20.25
 31
-0.5
  0
LINE
  5
357
330
1F
100
AcDbEntity
  8
0
100
AcDbLine
 10
16.74118810567665
 20
20.08762023679041
 30
-0.5
 11
16.92868810567665
 21
20.08762023679041
 31
-0.5
  0
LINE
  5
358
330
1F
100
AcDbEntity
  8
0
100
AcDbLine
 10
16.49567540378443
 20
17.33762023679042
 30
-0.5
 11
16.58942540378443
 21
17.49999999999999
 31
-0.5
  0
LINE
  5
359
330
1F
100
AcDbEntity
  8
0
100
AcDbLine
 10
17.88846350946109
 20
20.75
 30
-0.5
 11
17.79471350946109
 21
20.91237976320957
 31
-0.5
  0
LINE
  5
360
330
1F
100
AcDbEntity
  8
0
100
AcDbLine
 10
17.5134635094611
 20
20.25
 30
-0.5
 11
17.60721350946109
 21
20.08762023679041
 31
-0.5
  0
LINE
  5
361
330
1F
100
AcDbEntity
  8
0
100
AcDbLine
 10
17.79471350946109
 20
17.08762023679041
 30
-0.5
 11
17.88846350946109
 21
17.24999999999999
 31
-0.5
  0
LINE
  5
362
330
1F
100
AcDbEntity
  8
0
100
AcDbLine
 10
18.75448891324553
 20
17.75
 30
-0.5
 11
18.66073891324553
 21
17.91237976320957
 31
-0.5
  0
LINE
  5
363
330
1F
100
AcDbEntity
  8
0
100
AcDbLine
 10
18.47323891324553
 20
17.08762023679041
 30
-0.5
 11
18.66073891324553
 21
17.08762023679041
 31
-0.5
  0
LINE
  5
364
330
1F
100
AcDbEntity
  8
0
100
AcDbLine
 10
16.92868810567665
 20
19.91237976320957
 30
-0.5
 11
16.74118810567665
 21
19.91237976320957
 31
-0.5
  0
LINE
  5
365
330
1F
100
AcDbEntity
  8
0
100
AcDbLine
 10
18.04022621135332
 20
19.83762023679041
 30
-0.5
 11
18.22772621135332
 21
19.83762023679041
 31
-0.5
  0
LINE
  5
366
330
1F
100
AcDbEntity
  8
0
100
AcDbLine
 10
18.22772621135332
 20
17.33762023679042
 30
-0.5
 11
18.32147621135332
 21
17.49999999999999
 31
-0.5
  0
LINE
  5
367
330
1F
100
AcDbEntity
  8
0
100
AcDbLine
 10
18.37948891324553
 20
20.75
 30
-0.5
 11
18.47323891324553
 21
20.58762023679042
 31
-0.5
  0
LINE
  5
368
330
1F
100
AcDbEntity
  8
0
100
AcDbLine
 10
16.58942540378443
 20
17.0
 30
-0.5
 11
16.49567540378443
 21
17.16237976320957
 31
-0.5
  0
LINE
  5
369
330
1F
100
AcDbEntity
  8
0
100
AcDbLine
 10
16.21442540378443
 20
17.0
 30
-0.5
 11
16.30817540378443
 21
16.83762023679041
 31
-0.5
  0
LINE
  5
370
330
1F
100
AcDbEntity
  8
0
100
AcDbLine
 10
18.66073891324553
 20
18.41237976320957
 30
-0.5
 11
18.47323891324553
 21
18.41237976320957
 31
-0.5
  0
LINE
  5
371
330
1F
100
AcDbEntity
  8
0
100
AcDbLine
 10
16.74118810567665
 20
18.08762023679041
 30
-0.5
 11
16.92868810567665
 21
18.08762023679041
 31
-0.5
  0
LINE
  5
372
330
1F
100
AcDbEntity
  8
0
100
AcDbLine
 10
18.22772621135332
 20
15.83762023679041
 30
-0.5
 11
18.32147621135332
 21
15.99999999999999
 31
-0.5
  0
LINE
  5
373
330
1F
100
AcDbEntity
  8
0
100
AcDbLine
 10
17.45545080756887
 20
17.49999999999999
 30
-0.5
 11
17.36170080756887
 21
17.66237976320958
 31
-0.5
  0
LINE
  5
374
330
1F
100
AcDbEntity
  8
0
100
AcDbLine
 10
18.47323891324553
 20
20.91237976320957
 30
-0.5
 11
18.37948891324553
 21
20.75
 31
-0.5
  0
LINE
  5
375
330
1F
100
AcDbEntity
  8
0
100
AcDbLine
 10
18.04022621135332
 20
16.16237976320957
 30
-0.5
 11
17.94647621135332
 21
15.99999999999999
 31
-0.5
  0
LINE
  5
376
330
1F
100
AcDbEntity
  8
0
100
AcDbLine
 10
18.75448891324553
 20
18.75
 30
-0.5
 11
18.66073891324553
 21
18.91237976320957
 31
-0.5
  0
LINE
  5
377
330
1F
100
AcDbEntity
  8
0
100
AcDbLine
 10
17.17420080756887
 20
16.16237976320957
 30
-0.5
 11
17.08045080756887
 21
15.99999999999999
 31
-0.5
  0
LINE
  5
378
330
1F
100
AcDbEntity
  8
0
100
AcDbLine
 10
17.08045080756887
 20
18.0
 30
-0.5
 11
17.17420080756887
 21
17.83762023679041
 31
-0.5
  0
LINE
  5
379
330
1F
100
AcDbEntity
  8
0
100
AcDbLine
 10
17.79471350946109
 20
17.58762023679041
 30
-0.5
 11
17.88846350946109
 21
17.75
 31
-0.5
  0
LINE
  5
380
330
1F
100
AcDbEntity
  8
0
100
AcDbLine
 10
17.60721350946109
 20
21.08762023679041
 30
-0.5
 11
17.79471350946109
 21
21.08762023679041
 31
-0.5
  0
LINE
  5
381
330
1F
100
AcDbEntity
  8
0
100
AcDbLine
 10
17.17420080756887
 20
17.66237976320958
 30
-0.5
 11
17.08045080756887
 21
17.49999999999999
 31
-0.5
  0
LINE
  5
382
330
1F
100
AcDbEntity
  8
0
100
AcDbLine
 10
16.64743810567665
 20
20.75
 30
-0.5
 11
16.74118810567665
 21
20.58762023679042
 31
-0.5
  0
LINE
  5
383
330
1F
100
AcDbEntity
  8
0
100
AcDbLine
 10
18.04022621135332
 20
16.33762023679041
 30
-0.5
 11
18.22772621135332
 21
16.33762023679041
 31
-0.5
  0
LINE
  5
384
330
1F
100
AcDbEntity
  8
0
100
AcDbLine
 10
18.04022621135332
 20
21.16237976320958
 30
-0.5
 11
17.94647621135332
 21
21.0
 31
-0.5
  0
LINE
  5
385
330
1F
100
AcDbEntity
  8
0
100
AcDbLine
 10
17.45545080756887
 20
21.0
 30
-0.5
 11
17.36170080756887
 21
21.16237976320958
 31
-0.5
  0
LINE
  5
386
330
1F
100
AcDbEntity
  8
0
100
AcDbLine
 10
17.36170080756887
 20
20.83762023679041
 30
-0.5
 11
17.45545080756887
 21
21.0
 31
-0.5
  0
LINE
  5
387
330
1F
100
AcDbEntity
  8
0
100
AcDbLine
 10
16.64743810567665
 20
18.75
 30
-0.5
 11
16.74118810567665
 21
18.58762023679041
 31
-0.5
  0
LINE
  5
388
330
1F
100
AcDbEntity
  8
0
100
AcDbLine
 10
17.79471350946109
 20
19.58762023679041
 30
-0.5
 11
17.88846350946109
 21
19.75
 31
-0.5
  0
LINE
  5
389
330
1F
100
AcDbEntity
  8
0
100
AcDbLine
 10
16.64743810567665
 20
20.25
 30
-0.5
 11
16.74118810567665
 21
20.08762023679041
 31
-0.5
  0
LINE
  5
390
330
1F
100
AcDbEntity
  8
0
100
AcDbLine
 10
17.45545080756887
 20
18.5
 30
-0.5
 11
17.36170080756887
 21
18.66237976320957
 31
-0.5
  0
LINE
  5
391
330
1F
100
AcDbEntity
  8
0
100
AcDbLine
 10
17.02243810567665
 20
18.75
 30
-0.5
 11
16.92868810567665
 21
18.91237976320957
 31
-0.5
  0
LINE
  5
392
330
1F
100
AcDbEntity
  8
0
100
AcDbLine
 10
17.45545080756887
 20
18.0
 30
-0.5
 11
17.36170080756887
 21
18.16237976320957
 31
-0.5
  0
LINE
  5
393
330
1F
100
AcDbEntity
  8
0
100
AcDbLine
 10
16.74118810567665
 20
21.08762023679041
 30
-0.5
 11
16.92868810567665
 21
21.08762023679041
 31
-0.5
  0
LINE
  5
394
330
1F
100
AcDbEntity
  8
0
100
AcDbLine
 10
18.32147621135332
 20
21.5
 30
-0.5
 11
18.22772621135332
 21
21.66237976320957
 31
-0.5
  0
LINE
  5
395
330
1F
100
AcDbEntity
  8
0
100
AcDbLine
 10
18.32147621135332
 20
15.99999999999999
 30
-0.5
 11
18.22772621135332
 21
16.16237976320957
 31
-0.5
  0
LINE
  5
396
330
1F
100
AcDbEntity
  8
0
100
AcDbLine
 10
18.04022621135332
 20
18.83762023679041
 30
-0.5
 11
18.22772621135332
 21
18.83762023679041
 31
-0.5
  0
LINE
  5
397
330
1F
100
AcDbEntity
  8
0
100
AcDbLine
 10
17.94647621135332
 20
21.0
 30
-0.5
 11
18.04022621135332
 21
20.83762023679041
 31
-0.5
  0
LINE
  5
398
330
1F
100
AcDbEntity
  8
0
100
AcDbLine
 10
17.79471350946109
 20
19.08762023679041
 30
-0.5
 11
17.88846350946109
 21
19.25
 31
-0.5
  0
LINE
  5
399
330
1F
100
AcDbEntity
  8
0
100
AcDbLine
 10
17.5134635094611
 20
17.24999999999999
 30
-0.5
 11
17.60721350946109
 21
17.08762023679041
 31
-0.5
  0
LINE
  5
400
330
1F
100
AcDbEntity
  8
0
100
AcDbLine
 10
16.58942540378443
 20
16.49999999999999
 30
-0.5
 11
16.49567540378443
 21
16.66237976320958
 31
-0.5
  0
LINE
  5
401
330
1F
100
AcDbEntity
  8
0
100
AcDbLine
 10
16.49567540378443
 20
16.33762023679041
 30
-0.5
 11
16.58942540378443
 21
16.49999999999999
 31
-0.5
  0
LINE
  5
402
330
1F
100
AcDbEntity
  8
0
100
AcDbLine
 10
18.66073891324553
 20
20.58762023679042
 30
-0.5
 11
18.75448891324553
 21
20.75
 31
-0.5
  0
LINE
  5
403
330
1F
100
AcDbEntity
  8
0
100
AcDbLine
 10
16.64743810567665
 20
17.75
 30
-0.5
 11
16.74118810567665
 21
17.58762023679041
 31
-0.5
  0
LINE
  5
404
330
1F
100
AcDbEntity
  8
0
100
AcDbLine
 10
18.04022621135332
 20
17.33762023679042
 30
-0.5
 11
18.22772621135332
 21
17.33762023679042
 31
-0.5
  0
LINE
  5
405
330
1F
100
AcDbEntity
  8
0
100
AcDbLine
 10
17.94647621135332
 20
18.0
 30
-0.5
 11
18.04022621135332
 21
17.83762023679041
 31
-0.5
  0
LINE
  5
406
330
1F
100
AcDbEntity
  8
0
100
AcDbLine
 10
17.08045080756887
 20
21.5
 30
-0.5
 11
17.17420080756887
 21
21.33762023679041
 31
-0.5
  0
LINE
  5
407
330
1F
100
AcDbEntity
  8
0
100
AcDbLine
 10
17.36170080756887
 20
17.83762023679041
 30
-0.5
 11
17.45545080756887
 21
18.0
 31
-0.5
  0
LINE
  5
408
330
1F
100
AcDbEntity
  8
0
100
AcDbLine
 10
18.04022621135332
 20
18.16237976320957
 30
-0.5
 11
17.94647621135332
 21
18.0
 31
-0.5
  0
LINE
  5
409
330
1F
100
AcDbEntity
  8
0
100
AcDbLine
 10
17.94647621135332
 20
17.0
 30
-0.5
 11
18.04022621135332
 21
16.83762023679041
 31
-0.5
  0
LINE
  5
410
330
1F
100
AcDbEntity
  8
0
100
AcDbLine
 10
16.92868810567665
 20
20.08762023679041
 30
-0.5
 11
17.02243810567665
 21
20.25
 31
-0.5
  0
LINE
  5
411
330
1F
100
AcDbEntity
  8
0
100
AcDbLine
 10
17.36170080756887
 20
17.16237976320957
 30
-0.5
 11
17.17420080756887
 21
17.16237976320957
 31
-0.5
  0
LINE
  5
412
330
1F
100
AcDbEntity
  8
0
100
AcDbLine
 10
17.36170080756887
 20
19.83762023679041
 30
-0.5
 11
17.45545080756887
 21
20.0
 31
-0.5
  0
LINE
  5
413
330
1F
100
AcDbEntity
  8
0
100
AcDbLine
 10
17.17420080756887
 20
19.83762023679041
 30
-0.5
 11
17.36170080756887
 21
19.83762023679041
 31
-0.5
  0
LINE
  5
414
330
1F
100
AcDbEntity
  8
0
100
AcDbLine
 10
17.79471350946109
 20
20.41237976320958
 30
-0.5
 11
17.60721350946109
 21
20.41237976320958
 31
-0.5
  0
LINE
  5
415
330
1F
100
AcDbEntity
  8
0
100
AcDbLine
 10
16.64743810567665
 20
18.25
 30
-0.5
 11
16.74118810567665
 21
18.08762023679041
 31
-0.5
  0
LINE
  5
416
330
1F
100
AcDbEntity
  8
0
100
AcDbLine
 10
18.47323891324553
 20
17.91237976320957
 30
-0.5
 11
18.37948891324553
 21
17.75
 31
-0.5
  0
LINE
  5
417
330
1F
100
AcDbEntity
  8
0
100
AcDbLine
 10
16.74118810567665
 20
19.91237976320957
 30
-0.5
 11
16.64743810567665
 21
19.75
 31
-0.5
  0
LINE
  5
418
330
1F
100
AcDbEntity
  8
0
100
AcDbLine
 10
16.21442540378443
 20
20.5
 30
-0.5
 11
16.30817540378443
 21
20.33762023679042
 31
-0.5
  0
LINE
  5
419
330
1F
100
AcDbEntity
  8
0
100
AcDbLine
 10
17.17420080756887
 20
21.8376202367904
 30
-0.5
 11
17.36170080756887
 21
21.8376202367904
 31
-0.5
  0
LINE
  5
420
330
1F
100
AcDbEntity
  8
0
100
AcDbLine
 10
17.17420080756887
 20
15.83762023679041
 30
-0.5
 11
17.36170080756887
 21
15.83762023679041
 31
-0.5
  0
LINE
  5
421
330
1F
100
AcDbEntity
  8
0
100
AcDbLine
 10
17.36170080756887
 20
21.66237976320957
 30
-0.5
 11
17.17420080756887
 21
21.66237976320957
 31
-0.5
  0
LINE
  5
422
330
1F
100
AcDbEntity
  8
0
100
AcDbLine
 10
17.45545080756887
 20
15.99999999999999
 30
-0.5
 11
17.36170080756887
 21
16.16237976320957
 31
-0.5
  0
LINE
  5
423
330
1F
100
AcDbEntity
  8
0
100
AcDbLine
 10
17.36170080756887
 20
16.16237976320957
 30
-0.5
 11
17.17420080756887
 21
16.16237976320957
 31
-0.5
  0
LINE
  5
424
330
1F
100
AcDbEntity
  8
0
100
AcDbLine
 10
18.37948891324553
 20
17.75
 30
-0.5
 11
18.47323891324553
 21
17.58762023679041
 31
-0.5
  0
LINE
  5
425
330
1F
100
AcDbEntity
  8
0
100
AcDbLine
 10
17.45545080756887
 20
20.0
 30
-0.5
 11
17.36170080756887
 21
20.16237976320958
 31
-0.5
  0
LINE
  5
426
330
1F
100
AcDbEntity
  8
0
100
AcDbLine
 10
17.60721350946109
 20
17.58762023679041
 30
-0.5
 11
17.79471350946109
 21
17.58762023679041
 31
-0.5
  0
LINE
  5
427
330
1F
100
AcDbEntity
  8
0
100
AcDbLine
 10
17.88846350946109
 20
16.74999999999999
 30
-0.5
 11
17.79471350946109
 21
16.91237976320957
 31
-0.5
  0
LINE
  5
428
330
1F
100
AcDbEntity
  8
0
100
AcDbLine
 10
17.17420080756887
 20
20.16237976320958
 30
-0.5
 11
17.08045080756887
 21
20.0
 31
-0.5
  0
LINE
  5
429
330
1F
100
AcDbEntity
  8
0
100
AcDbLine
 10
16.74118810567665
 20
20.58762023679042
 30
-0.5
 11
16.92868810567665
 21
20.58762023679042
 31
-0.5
  0
LINE
  5
430
330
1F
100
AcDbEntity
  8
0
100
AcDbLine
 10
16.92868810567665
 20
16.08762023679041
 30
-0.5
 11
17.02243810567665
 21
16.25
 31
-0.5
  0
LINE
  5
431
330
1F
100
AcDbEntity
  8
0
100
AcDbLine
 10
17.60721350946109
 20
16.91237976320957
 30
-0.5
 11
17.5134635094611
 21
16.74999999999999
 31
-0.5
  0
LINE
  5
432
330
1F
100
AcDbEntity
  8
0
100
AcDbLine
 10
18.22772621135332
 20
19.83762023679041
 30
-0.5
 11
18.32147621135332
 21
20.0
 31
-0.5
  0
LINE
  5
433
330
1F
100
AcDbEntity
  8
0
100
AcDbLine
 10
17.36170080756887
 20
18.66237976320957
 30
-0.5
 11
17.17420080756887
 21
18.66237976320957
 31
-0.5
  0
LINE
  5
434
330
1F
100
AcDbEntity
  8
0
100
AcDbLine
 10
16.64743810567665
 20
19.75
 30
-0.5
 11
16.74118810567665
 21
19.58762023679041
 31
-0.5
  0
LINE
  5
435
330
1F
100
AcDbEntity
  8
0
100
AcDbLine
 10
17.36170080756887
 20
17.66237976320958
 30
-0.5
 11
17.17420080756887
 21
17.66237976320958
 31
-0.5
  0
LINE
  5
436
330
1F
100
AcDbEntity
  8
0
100
AcDbLine
 10
18.75448891324553
 20
16.74999999999999
 30
-0.5
 11
18.66073891324553
 21
16.91237976320957
 31
-0.5
  0
LINE
  5
437
330
1F
100
AcDbEntity
  8
0
100
AcDbLine
 10
17.94647621135332
 20
18.5
 30
-0.5
 11
18.04022621135332
 21
18.33762023679041
 31
-0.5
  0
LINE
  5
438
330
1F
100
AcDbEntity
  8
0
100
AcDbLine
 10
17.17420080756887
 20
16.33762023679041
 30
-0.5
 11
17.36170080756887
 21
16.33762023679041
 31
-0.5
  0
LINE
  5
439
330
1F
100
AcDbEntity
  8
0
100
AcDbLine
 10
17.17420080756887
 20
18.33762023679041
 30
-0.5
 11
17.36170080756887
 21
18.33762023679041
 31
-0.5
  0
LINE
  5
440
330
1F
100
AcDbEntity
  8
0
100
AcDbLine
 10
17.02243810567665
 20
17.75
 30
-0.5
 11
16.92868810567665
 21
17.91237976320957
 31
-0.5
  0
LINE
  5
441
330
1F
100
AcDbEntity
  8
0
100
AcDbLine
 10
18.04022621135332
 20
20.83762023679041
 30
-0.5
 11
18.22772621135332
 21
20.83762023679041
 31
-0.5
  0
LINE
  5
442
330
1F
100
AcDbEntity
  8
0
100
AcDbLine
 10
17.45545080756887
 20
17.0
 30
-0.5
 11
17.36170080756887
 21
17.16237976320957
 31
-0.5
  0
LINE
  5
443
330
1F
100
AcDbEntity
  8
0
100
AcDbLine
 10
18.22772621135332
 20
21.16237976320958
 30
-0.5
 11
18.04022621135332
 21
21.16237976320958
 31
-0.5
  0
LINE
  5
444
330
1F
100
AcDbEntity
  8
0
100
AcDbLine
 10
18.04022621135332
 20
16.83762023679041
 30
-0.5
 11
18.22772621135332
 21
16.83762023679041
 31
-0.5
  0
LINE
  5
445
330
1F
100
AcDbEntity
  8
0
100
AcDbLine
 10
17.79471350946109
 20
16.08762023679041
 30
-0.5
 11
17.88846350946109
 21
16.25
 31
-0.5
  0
LINE
  5
446
330
1F
100
AcDbEntity
  8
0
100
AcDbLine
 10
16.30817540378443
 20
20.33762023679042
 30
-0.5
 11
16.49567540378443
 21
20.33762023679042
 31
-0.5
  0
LINE
  5
447
330
1F
100
AcDbEntity
  8
0
100
AcDbLine
 10
16.49567540378443
 20
20.66237976320957
 30
-0.5
 11
16.30817540378443
 21
20.66237976320957
 31
-0.5
  0
LINE
  5
448
330
1F
100
AcDbEntity
  8
0
100
AcDbLine
 10
17.88846350946109
 20
17.75
 30
-0.5
 11
17.79471350946109
 21
17.91237976320957
 31
-0.5
  0
LINE
  5
449
330
1F
100
AcDbEntity
  8
0
100
AcDbLine
 10
18.47323891324553
 20
16.41237976320957
 30
-0.5
 11
18.37948891324553
 21
16.25
 31
-0.5
  0
LINE
  5
450
330
1F
100
AcDbEntity
  8
0
100
AcDbLine
 10
18.75448891324553
 20
20.75
 30
-0.5
 11
18.66073891324553
 21
20.91237976320957
 31
-0.5
  0
LINE
  5
451
330
1F
100
AcDbEntity
  8
0
100
AcDbLine
 10
17.08045080756887
 20
21.0
 30
-0.5
 11
17.17420080756887
 21
20.83762023679041
 31
-0.5
  0
LINE
  5
452
330
1F
100
AcDbEntity
  8
0
100
AcDbLine
 10
17.17420080756887
 20
21.16237976320958
 30
-0.5
 11
17.08045080756887
 21
21.0
 31
-0.5
  0
LINE
  5
453
330
1F
100
AcDbEntity
  8
0
100
AcDbLine
 10
17.5134635094611
 20
17.75
 30
-0.5
 11
17.60721350946109
 21
17.58762023679041
 31
-0.5
  0
LINE
  5
454
330
1F
100
AcDbEntity
  8
0
100
AcDbLine
 10
18.75448891324553
 20
19.75
 30
-0.5
 11
18.66073891324553
 21
19.91237976320957
 31
-0.5
  0
LINE
  5
455
330
1F
100
AcDbEntity
  8
0
100
AcDbLine
 10
17.94647621135332
 20
19.5
 30
-0.5
 11
18.04022621135332
 21
19.33762023679041
 31
-0.5
  0
LINE
  5
456
330
1F
100
AcDbEntity
  8
0
100
AcDbLine
 10
16.49567540378443
 20
21.16237976320958
 30
-0.5
 11
16.30817540378443
 21
21.16237976320958
 31
-0.5
  0
LINE
  5
457
330
1F
100
AcDbEntity
  8
0
100
AcDbLine
 10
16.49567540378443
 20
16.66237976320958
 30
-0.5
 11
16.30817540378443
 21
16.66237976320958
 31
-0.5
  0
LINE
  5
458
330
1F
100
AcDbEntity
  8
0
100
AcDbLine
 10
17.08045080756887
 20
19.0
 30
-0.5
 11
17.17420080756887
 21
18.83762023679041
 31
-0.5
  0
LINE
  5
459
330
1F
100
AcDbEntity
  8
0
100
AcDbLine
 10
18.04022621135332
 20
17.83762023679041
 30
-0.5
 11
18.22772621135332
 21
17.83762023679041
 31
-0.5
  0
LINE
  5
460
330
1F
100
AcDbEntity
  8
0
100
AcDbLine
 10
16.30817540378443
 20
17.33762023679042
 30
-0.5
 11
16.49567540378443
 21
17.33762023679042
 31
-0.5
  0
LINE
  5
461
330
1F
100
AcDbEntity
  8
0
100
AcDbLine
 10
16.58942540378443
 20
18.0
 30
-0.5
 11
16.49567540378443
 21
18.16237976320957
 31
-0.5
  0
LINE
  5
462
330
1F
100
AcDbEntity
  8
0
100
AcDbLine
 10
18.32147621135332
 20
18.0
 30
-0.5
 11
18.22772621135332
 21
18.16237976320957
 31
-0.5
  0
LINE
  5
463
330
1F
100
AcDbEntity
  8
0
100
AcDbLine
 10
18.22772621135332
 20
19.16237976320957
 30
-0.5
 11
18.04022621135332
 21
19.16237976320957
 31
-0.5
  0
LINE
  5
464
330
1F
100
AcDbEntity
  8
0
100
AcDbLine
 10
17.60721350946109
 20
16.58762023679042
 30
-0.5
 11
17.79471350946109
 21
16.58762023679042
 31
-0.5
  0
LINE
  5
465
330
1F
100
AcDbEntity
  8
0
100
AcDbLine
 10
18.04022621135332
 20
20.33762023679042
 30
-0.5
 11
18.22772621135332
 21
20.33762023679042
 31
-0.5
  0
LINE
  5
466
330
1F
100
AcDbEntity
  8
0
100
AcDbLine
 10
18.22772621135332
 20
21.33762023679041
 30
-0.5
 11
18.32147621135332
 21
21.5
 31
-0.5
  0
LINE
  5
467
330
1F
100
AcDbEntity
  8
0
100
AcDbLine
 10
17.45545080756887
 20
19.5
 30
-0.5
 11
17.36170080756887
 21
19.66237976320957
 31
-0.5
  0
LINE
  5
468
330
1F
100
AcDbEntity
  8
0
100
AcDbLine
 10
17.36170080756887
 20
20.16237976320958
 30
-0.5
 11
17.17420080756887
 21
20.16237976320958
 31
-0.5
  0
LINE
  5
469
330
1F
100
AcDbEntity
  8
0
100
AcDbLine
 10
17.36170080756887
 20
20.66237976320957
 30
-0.5
 11
17.17420080756887
 21
20.66237976320957
 31
-0.5
  0
LINE
  5
470
330
1F
100
AcDbEntity
  8
0
100
AcDbLine
 10
16.92868810567665
 20
19.08762023679041
 30
-0.5
 11
17.02243810567665
 21
19.25
 31
-0.5
  0
LINE
  5
471
330
1F
100
AcDbEntity
  8
0
100
AcDbLine
 10
17.17420080756887
 20
20.33762023679042
 30
-0.5
 11
17.36170080756887
 21
20.33762023679042
 31
-0.5
  0
LINE
  5
472
330
1F
100
AcDbEntity
  8
0
100
AcDbLine
 10
16.92868810567665
 20
17.58762023679041
 30
-0.5
 11
17.02243810567665
 21
17.75
 31
-0.5
  0
LINE
  5
473
330
1F
100
AcDbEntity
  8
0
100
AcDbLine
 10
17.02243810567665
 20
18.25
 30
-0.5
 11
16.92868810567665
 21
18.41237976320957
 31
-0.5
  0
LINE
  5
474
330
1F
100
AcDbEntity
  8
0
100
AcDbLine
 10
18.47323891324553
 20
17.58762023679041
 30
-0.5
 11
18.66073891324553
 21
17.58762023679041
 31
-0.5
  0
LINE
  5
475
330
1F
100
AcDbEntity
  8
0
100
AcDbLine
 10
17.60721350946109
 20
19.91237976320957
 30
-0.5
 11
17.5134635094611
 21
19.75
 31
-0.5
  0
LINE
  5
476
330
1F
100
AcDbEntity
  8
0
100
AcDbLine
 10
17.79471350946109
 20
16.41237976320957
 30
-0.5
 11
17.60721350946109
 21
16.41237976320957
 31
-0.5
  0
LINE
  5
477
330
1F
100
AcDbEntity
  8
0
100
AcDbLine
 10
17.36170080756887
 20
18.83762023679041
 30
-0.5
 11
17.45545080756887
 21
19.0
 31
-0.5
  0
LINE
  5
478
330
1F
100
AcDbEntity
  8
0
100
AcDbLine
 10
16.30817540378443
 20
16.83762023679041
 30
-0.5
 11
16.49567540378443
 21
16.83762023679041
 31
-0.5
  0
LINE
  5
479
330
1F
100
AcDbEntity
  8
0
100
AcDbLine
 10
16.49567540378443
 20
17.83762023679041
 30
-0.5
 11
16.58942540378443
 21
18.0
 31
-0.5
  0
LINE
  5
480
330
1F
100
AcDbEntity
  8
0
100
AcDbLine
 10
18.75448891324553
 20
17.24999999999999
 30
-0.5
 11
18.66073891324553
 21
17.41237976320958
 31
-0.5
  0
LINE
  5
481
330
1F
100
AcDbEntity
  8
0
100
AcDbLine
 10
16.92868810567665
 20
20.58762023679042
 30
-0.5
 11
17.02243810567665
 21
20.75
 31
-0.5
  0
LINE
  5
482
330
1F
100
AcDbEntity
  8
0
100
AcDbLine
 10
18.66073891324553
 20
17.91237976320957
 30
-0.5
 11
18.47323891324553
 21
17.91237976320957
 31
-0.5
  0
LINE
  5
483
330
1F
100
AcDbEntity
  8
0
100
AcDbLine
 10
19.52676431702997
 20
16.41237976320957
 30
-0.5
 11
19.33926431702997
 21
16.41237976320957
 31
-0.5
  0
LINE
  5
484
330
1F
100
AcDbEntity
  8
0
100
AcDbLine
 10
18.47323891324553
 20
17.41237976320958
 30
-0.5
 11
18.37948891324553
 21
17.24999999999999
 31
-0.5
  0
LINE
  5
485
330
1F
100
AcDbEntity
  8
0
100
AcDbLine
 10
18.66073891324553
 20
19.08762023679041
 30
-0.5
 11
18.75448891324553
 21
19.25
 31
-0.5
  0
LINE
  5
486
330
1F
100
AcDbEntity
  8
0
100
AcDbLine
 10
17.88846350946109
 20
17.24999999999999
 30
-0.5
 11
17.79471350946109
 21
17.41237976320958
 31
-0.5
  0
LINE
  5
487
330
1F
100
AcDbEntity
  8
0
100
AcDbLine
 10
18.04022621135332
 20
17.16237976320957
 30
-0.5
 11
17.94647621135332
 21
17.0
 31
-0.5
  0
LINE
  5
488
330
1F
100
AcDbEntity
  8
0
100
AcDbLine
 10
18.47323891324553
 20
16.08762023679041
 30
-0.5
 11
18.66073891324553
 21
16.08762023679041
 31
-0.5
  0
LINE
  5
489
330
1F
100
AcDbEntity
  8
0
100
AcDbLine
 10
17.60721350946109
 20
20.91237976320957
 30
-0.5
 11
17.5134635094611
 21
20.75
 31
-0.5
  0
LINE
  5
490
330
1F
100
AcDbEntity
  8
0
100
AcDbLine
 10
18.22772621135332
 20
20.66237976320957
 30
-0.5
 11
18.04022621135332
 21
20.66237976320957
 31
-0.5
  0
LINE
  5
491
330
1F
100
AcDbEntity
  8
0
100
AcDbLine
 10
17.88846350946109
 20
20.25
 30
-0.5
 11
17.79471350946109
 21
20.41237976320958
 31
-0.5
  0
LINE
  5
492
330
1F
100
AcDbEntity
  8
0
100
AcDbLine
 10
17.02243810567665
 20
19.25
 30
-0.5
 11
16.92868810567665
 21
19.41237976320957
 31
-0.5
  0
LINE
  5
493
330
1F
100
AcDbEntity
  8
0
100
AcDbLine
 10
18.37948891324553
 20
18.75
 30
-0.5
 11
18.47323891324553
 21
18.58762023679041
 31
-0.5
  0
LINE
  5
494
330
1F
100
AcDbEntity
  8
0
100
AcDbLine
 10
16.92868810567665
 20
18.08762023679041
 30
-0.5
 11
17.02243810567665
 21
18.25
 31
-0.5
  0
LINE
  5
495
330
1F
100
AcDbEntity
  8
0
100
AcDbLine
 10
18.66073891324553
 20
16.91237976320957
 30
-0.5
 11
18.47323891324553
 21
16.91237976320957
 31
-0.5
  0
LINE
  5
496
330
1F
100
AcDbEntity
  8
0
100
AcDbLine
 10
16.49567540378443
 20
18.66237976320957
 30
-0.5
 11
16.30817540378443
 21
18.66237976320957
 31
-0.5
  0
LINE
  5
497
330
1F
100
AcDbEntity
  8
0
100
AcDbLine
 10
17.45545080756887
 20
20.5
 30
-0.5
 11
17.36170080756887
 21
20.66237976320957
 31
-0.5
  0
LINE
  5
498
330
1F
100
AcDbEntity
  8
0
100
AcDbLine
 10
18.47323891324553
 20
21.41237976320958
 30
-0.5
 11
18.37948891324553
 21
21.25
 31
-0.5
  0
LINE
  5
499
330
1F
100
AcDbEntity
  8
0
100
AcDbLine
 10
16.74118810567665
 20
18.41237976320957
 30
-0.5
 11
16.64743810567665
 21
18.25
 31
-0.5
  0
LINE
  5
500
330
1F
100
AcDbEntity
  8
0
100
AcDbLine
 10
17.08045080756887
 20
20.0
 30
-0.5
 11
17.17420080756887
 21
19.83762023679041
 31
-0.5
  0
LINE
  5
501
330
1F
100
AcDbEntity
  8
0
100
AcDbLine
 10
17.08045080756887
 20
15.99999999999999
 30
-0.5
 11
17.17420080756887
 21
15.83762023679041
 31
-0.5
  0
LINE
  5
502
330
1F
100
AcDbEntity
  8
0
100
AcDbLine
 10
17.17420080756887
 20
19.33762023679041
 30
-0.5
 11
17.36170080756887
 21
19.33762023679041
 31
-0.5
  0
LINE
  5
503
330
1F
100
AcDbEntity
  8
0
100
AcDbLine
 10
16.74118810567665
 20
17.91237976320957
 30
-0.5
 11
16.64743810567665
 21
17.75
 31
-0.5
  0
LINE
  5
504
330
1F
100
AcDbEntity
  8
0
100
AcDbLine
 10
17.94647621135332
 20
16.49999999999999
 30
-0.5
 11
18.04022621135332
 21
16.33762023679041
 31
-0.5
  0
LINE
  5
505
330
1F
100
AcDbEntity
  8
0
100
AcDbLine
 10
16.74118810567665
 20
21.91237976320957
 30
-0.5
 11
16.64743810567665
 21
21.75
 31
-0.5
  0
LINE
  5
506
330
1F
100
AcDbEntity
  8
0
100
AcDbLine
 10
18.37948891324553
 20
19.25
 30
-0.5
 11
18.47323891324553
 21
19.08762023679041
 31
-0.5
  0
LINE
  5
507
330
1F
100
AcDbEntity
  8
0
100
AcDbLine
 10
17.36170080756887
 20
20.33762023679042
 30
-0.5
 11
17.45545080756887
 21
20.5
 31
-0.5
  0
LINE
  5
508
330
1F
100
AcDbEntity
  8
0
100
AcDbLine
 10
17.36170080756887
 20
19.16237976320957
 30
-0.5
 11
17.17420080756887
 21
19.16237976320957
 31
-0.5
  0
LINE
  5
509
330
1F
100
AcDbEntity
  8
0
100
AcDbLine
 10
17.08045080756887
 20
22.0
 30
-0.5
 11
17.17420080756887
 21
21.8376202367904
 31
-0.5
  0
LINE
  5
510
330
1F
100
AcDbEntity
  8
0
100
AcDbLine
 10
17.08045080756887
 20
16.49999999999999
 30
-0.5
 11
17.17420080756887
 21
16.33762023679041
 31
-0.5
  0
LINE
  5
511
330
1F
100
AcDbEntity
  8
0
100
AcDbLine
 10
18.22772621135332
 20
18.83762023679041
 30
-0.5
 11
18.32147621135332
 21
19.0
 31
-0.5
  0
LINE
  5
512
330
1F
100
AcDbEntity
  8
0
100
AcDbLine
 10
18.47323891324553
 20
18.58762023679041
 30
-0.5
 11
18.66073891324553
 21
18.58762023679041
 31
-0.5
  0
LINE
  5
513
330
1F
100
AcDbEntity
  8
0
100
AcDbLine
 10
17.79471350946109
 20
18.08762023679041
 30
-0.5
 11
17.88846350946109
 21
18.25
 31
-0.5
  0
LINE
  5
514
330
1F
100
AcDbEntity
  8
0
100
AcDbLine
 10
16.30817540378443
 20
21.66237976320957
 30
-0.5
 11
16.21442540378443
 21
21.5
 31
-0.5
  0
LINE
  5
515
330
1F
100
AcDbEntity
  8
0
100
AcDbLine
 10
17.79471350946109
 20
18.41237976320957
 30
-0.5
 11
17.60721350946109
 21
18.41237976320957
 31
-0.5
  0
LINE
  5
516
330
1F
100
AcDbEntity
  8
0
100
AcDbLine
 10
16.92868810567665
 20
19.41237976320957
 30
-0.5
 11
16.74118810567665
 21
19.41237976320957
 31
-0.5
  0
LINE
  5
517
330
1F
100
AcDbEntity
  8
0
100
AcDbLine
 10
17.17420080756887
 20
20.66237976320957
 30
-0.5
 11
17.08045080756887
 21
20.5
 31
-0.5
  0
LINE
  5
518
330
1F
100
AcDbEntity
  8
0
100
AcDbLine
 10
17.08045080756887
 20
20.5
 30
-0.5
 11
17.17420080756887
 21
20.33762023679042
 31
-0.5
  0
LINE
  5
519
330
1F
100
AcDbEntity
  8
0
100
AcDbLine
 10
18.47323891324553
 20
19.08762023679041
 30
-0.5
 11
18.66073891324553
 21
19.08762023679041
 31
-0.5
  0
LINE
  5
520
330
1F
100
AcDbEntity
  8
0
100
AcDbLine
 10
18.75448891324553
 20
16.25
 30
-0.5
 11
18.66073891324553
 21
16.41237976320957
 31
-0.5
  0
LINE
  5
521
330
1F
100
AcDbEntity
  8
0
100
AcDbLine
 10
17.08045080756887
 20
19.5
 30
-0.5
 11
17.17420080756887
 21
19.33762023679041
 31
-0.5
  0
LINE
  5
522
330
1F
100
AcDbEntity
  8
0
100
AcDbLine
 10
17.88846350946109
 20
18.25
 30
-0.5
 11
17.79471350946109
 21
18.41237976320957
 31
-0.5
  0
LINE
  5
523
330
1F
100
AcDbEntity
  8
0
100
AcDbLine
 10
17.17420080756887
 20
16.66237976320958
 30
-0.5
 11
17.08045080756887
 21
16.49999999999999
 31
-0.5
  0
LINE
  5
524
330
1F
100
AcDbEntity
  8
0
100
AcDbLine
 10
18.04022621135332
 20
20.66237976320957
 30
-0.5
 11
17.94647621135332
 21
20.5
 31
-0.5
  0
LINE
  5
525
330
1F
100
AcDbEntity
  8
0
100
AcDbLine
 10
17.02243810567665
 20
20.25
 30
-0.5
 11
16.92868810567665
 21
20.41237976320958
 31
-0.5
  0
LINE
  5
526
330
1F
100
AcDbEntity
  8
0
100
AcDbLine
 10
17.36170080756887
 20
19.66237976320957
 30
-0.5
 11
17.17420080756887
 21
19.66237976320957
 31
-0.5
  0
LINE
  5
527
330
1F
100
AcDbEntity
  8
0
100
AcDbLine
 10
18.66073891324553
 20
18.91237976320957
 30
-0.5
 11
18.47323891324553
 21
18.91237976320957
 31
-0.5
  0
LINE
  5
528
330
1F
100
AcDbEntity
  8
0
100
AcDbLine
 10
16.74118810567665
 20
18.58762023679041
 30
-0.5
 11
16.92868810567665
 21
18.58762023679041
 31
-0.5
  0
LINE
  5
529
330
1F
100
AcDbEntity
  8
0
100
AcDbLine
 10
18.47323891324553
 20
16.58762023679042
 30
-0.5
 11
18.66073891324553
 21
16.58762023679042
 31
-0.5
  0
LINE
  5
530
330
1F
100
AcDbEntity
  8
0
100
AcDbLine
 10
17.79471350946109
 20
19.91237976320957
 30
-0.5
 11
17.60721350946109
 21
19.91237976320957
 31
-0.5
  0
LINE
  5
531
330
1F
100
AcDbEntity
  8
0
100
AcDbLine
 10
18.32147621135332
 20
18.5
 30
-0.5
 11
18.22772621135332
 21
18.66237976320957
 31
-0.5
  0
LINE
  5
532
330
1F
100
AcDbEntity
  8
0
100
AcDbLine
 10
18.04022621135332
 20
18.66237976320957
 30
-0.5
 11
17.94647621135332
 21
18.5
 31
-0.5
  0
LINE
  5
533
330
1F
100
AcDbEntity
  8
0
100
AcDbLine
 10
16.58942540378443
 20
18.5
 30
-0.5
 11
16.49567540378443
 21
18.66237976320957
 31
-0.5
  0
LINE
  5
534
330
1F
100
AcDbEntity
  8
0
100
AcDbLine
 10
18.22772621135332
 20
18.66237976320957
 30
-0.5
 11
18.04022621135332
 21
18.66237976320957
 31
-0.5
  0
LINE
  5
535
330
1F
100
AcDbEntity
  8
0
100
AcDbLine
 10
17.5134635094611
 20
20.75
 30
-0.5
 11
17.60721350946109
 21
20.58762023679042
 31
-0.5
  0
LINE
  5
536
330
1F
100
AcDbEntity
  8
0
100
AcDbLine
 10
16.92868810567665
 20
18.41237976320957
 30
-0.5
 11
16.74118810567665
 21
18.41237976320957
 31
-0.5
  0
LINE
  5
537
330
1F
100
AcDbEntity
  8
0
100
AcDbLine
 10
17.60721350946109
 20
20.41237976320958
 30
-0.5
 11
17.5134635094611
 21
20.25
 31
-0.5
  0
LINE
  5
538
330
1F
100
AcDbEntity
  8
0
100
AcDbLine
 10
17.88846350946109
 20
19.75
 30
-0.5
 11
17.79471350946109
 21
19.91237976320957
 31
-0.5
  0
LINE
  5
539
330
1F
100
AcDbEntity
  8
0
100
AcDbLine
 10
18.22772621135332
 20
21.8376202367904
 30
-0.5
 11
18.32147621135332
 21
22.0
 31
-0.5
  0
LINE
  5
540
330
1F
100
AcDbEntity
  8
0
100
AcDbLine
 10
18.32147621135332
 20
19.0
 30
-0.5
 11
18.22772621135332
 21
19.16237976320957
 31
-0.5
  0
LINE
  5
541
330
1F
100
AcDbEntity
  8
0
100
AcDbLine
 10
18.47323891324553
 20
16.91237976320957
 30
-0.5
 11
18.37948891324553
 21
16.74999999999999
 31
-0.5
  0
LINE
  5
542
330
1F
100
AcDbEntity
  8
0
100
AcDbLine
 10
17.88846350946109
 20
18.75
 30
-0.5
 11
17.79471350946109
 21
18.91237976320957
 31
-0.5
  0
LINE
  5
543
330
1F
100
AcDbEntity
  8
0
100
AcDbLine
 10
18.75448891324553
 20
19.25
 30
-0.5
 11
18.66073891324553
 21
19.41237976320957
 31
-0.5
  0
LINE
  5
544
330
1F
100
AcDbEntity
  8
0
100
AcDbLine
 10
17.02243810567665
 20
21.75
 30
-0.5
 11
16.92868810567665
 21
21.91237976320957
 31
-0.5
  0
LINE
  5
545
330
1F
100
AcDbEntity
  8
0
100
AcDbLine
 10
18.47323891324553
 20
20.41237976320958
 30
-0.5
 11
18.37948891324553
 21
20.25
 31
-0.5
  0
LINE
  5
546
330
1F
100
AcDbEntity
  8
0
100
AcDbLine
 10
18.22772621135332
 20
21.66237976320957
 30
-0.5
 11
18.04022621135332
 21
21.66237976320957
 31
-0.5
  0
LINE
  5
547
330
1F
100
AcDbEntity
  8
0
100
AcDbLine
 10
16.74118810567665
 20
19.58762023679041
 30
-0.5
 11
16.92868810567665
 21
19.58762023679041
 31
-0.5
  0
LINE
  5
548
330
1F
100
AcDbEntity
  8
0
100
AcDbLine
 10
18.32147621135332
 20
16.49999999999999
 30
-0.5
 11
18.22772621135332
 21
16.66237976320958
 31
-0.5
  0
LINE
  5
549
330
1F
100
AcDbEntity
  8
0
100
AcDbLine
 10
17.5134635094611
 20
19.25
 30
-0.5
 11
17.60721350946109
 21
19.08762023679041
 31
-0.5
  0
LINE
  5
550
330
1F
100
AcDbEntity
  8
0
100
AcDbLine
 10
17.36170080756887
 20
16.66237976320958
 30
-0.5
 11
17.17420080756887
 21
16.66237976320958
 31
-0.5
  0
LINE
  5
551
330
1F
100
AcDbEntity
  8
0
100
AcDbLine
 10
16.49567540378443
 20
16.83762023679041
 30
-0.5
 11
16.58942540378443
 21
17.0
 31
-0.5
  0
LINE
  5
552
330
1F
100
AcDbEntity
  8
0
100
AcDbLine
 10
17.79471350946109
 20
20.58762023679042
 30
-0.5
 11
17.88846350946109
 21
20.75
 31
-0.5
  0
LINE
  5
553
330
1F
100
AcDbEntity
  8
0
100
AcDbLine
 10
17.36170080756887
 20
21.16237976320958
 30
-0.5
 11
17.17420080756887
 21
21.16237976320958
 31
-0.5
  0
LINE
  5
554
330
1F
100
AcDbEntity
  8
0
100
AcDbLine
 10
16.92868810567665
 20
21.5876202367904
 30
-0.5
 11
17.02243810567665
 21
21.75
 31
-0.5
  0
LINE
  5
555
330
1F
100
AcDbEntity
  8
0
100
AcDbLine
 10
17.94647621135332
 20
21.5
 30
-0.5
 11
18.04022621135332
 21
21.33762023679041
 31
-0.5
  0
LINE
  5
556
330
1F
100
AcDbEntity
  8
0
100
AcDbLine
 10
17.5134635094611
 20
21.25
 30
-0.5
 11
17.60721350946109
 21
21.08762023679041
 31
-0.5
  0
LINE
  5
557
330
1F
100
AcDbEntity
  8
0
100
AcDbLine
 10
17.02243810567665
 20
20.75
 30
-0.5
 11
16.92868810567665
 21
20.91237976320957
 31
-0.5
  0
LINE
  5
558
330
1F
100
AcDbEntity
  8
0
100
AcDbLine
 10
17.60721350946109
 20
16.08762023679041
 30
-0.5
 11
17.79471350946109
 21
16.08762023679041
 31
-0.5
  0
LINE
  5
559
330
1F
100
AcDbEntity
  8
0
100
AcDbLine
 10
16.92868810567665
 20
21.08762023679041
 30
-0.5
 11
17.02243810567665
 21
21.25
 31
-0.5
  0
LINE
  5
560
330
1F
100
AcDbEntity
  8
0
100
AcDbLine
 10
18.22772621135332
 20
17.16237976320957
 30
-0.5
 11
18.04022621135332
 21
17.16237976320957
 31
-0.5
  0
LINE
  5
561
330
1F
100
AcDbEntity
  8
0
100
AcDbLine
 10
16.64743810567665
 20
21.25
 30
-0.5
 11
16.74118810567665
 21
21.08762023679041
 31
-0.5
  0
LINE
  5
562
330
1F
100
AcDbEntity
  8
0
100
AcDbLine
 10
18.22772621135332
 20
17.66237976320958
 30
-0.5
 11
18.04022621135332
 21
17.66237976320958
 31
-0.5
  0
LINE
  5
563
330
1F
100
AcDbEntity
  8
0
100
AcDbLine
 10
16.64743810567665
 20
19.25
 30
-0.5
 11
16.74118810567665
 21
19.08762023679041
 31
-0.5
  0
LINE
  5
564
330
1F
100
AcDbEntity
  8
0
100
AcDbLine
 10
18.22772621135332
 20
22.16237976320957
 30
-0.5
 11
18.04022621135332
 21
22.16237976320957
 31
-0.5
  0
LINE
  5
565
330
1F
100
AcDbEntity
  8
0
100
AcDbLine
 10
18.04022621135332
 20
15.83762023679041
 30
-0.5
 11
18.22772621135332
 21
15.83762023679041
 31
-0.5
  0
LINE
  5
566
330
1F
100
AcDbEntity
  8
0
100
AcDbLine
 10
16.92868810567665
 20
17.91237976320957
 30
-0.5
 11
16.74118810567665
 21
17.91237976320957
 31
-0.5
  0
LINE
  5
567
330
1F
100
AcDbEntity
  8
0
100
AcDbLine
 10
18.47323891324553
 20
19.91237976320957
 30
-0.5
 11
18.37948891324553
 21
19.75
 31
-0.5
  0
LINE
  5
568
330
1F
100
AcDbEntity
  8
0
100
AcDbLine
 10
16.92868810567665
 20
21.41237976320958
 30
-0.5
 11
16.74118810567665
 21
21.41237976320958
 31
-0.5
  0
LINE
  5
569
330
1F
100
AcDbEntity
  8
0
100
AcDbLine
 10
17.60721350946109
 20
19.58762023679041
 30
-0.5
 11
17.79471350946109
 21
19.58762023679041
 31
-0.5
  0
LINE
  5
570
330
1F
100
AcDbEntity
  8
0
100
AcDbLine
 10
17.02243810567665
 20
21.25
 30
-0.5
 11
16.92868810567665
 21
21.41237976320958
 31
-0.5
  0
LINE
  5
571
330
1F
100
AcDbEntity
  8
0
100
AcDbLine
 10
18.22772621135332
 20
17.83762023679041
 30
-0.5
 11
18.32147621135332
 21
18.0
 31
-0.5
  0
LINE
  5
572
330
1F
100
AcDbEntity
  8
0
100
AcDbLine
 10
18.47323891324553
 20
18.41237976320957
 30
-0.5
 11
18.37948891324553
 21
18.25
 31
-0.5
  0
LINE
  5
573
330
1F
100
AcDbEntity
  8
0
100
AcDbLine
 10
18.22772621135332
 20
20.16237976320958
 30
-0.5
 11
18.04022621135332
 21
20.16237976320958
 31
-0.5
  0
LINE
  5
574
330
1F
100
AcDbEntity
  8
0
100
AcDbLine
 10
18.04022621135332
 20
20.16237976320958
 30
-0.5
 11
17.94647621135332
 21
20.0
 31
-0.5
  0
LINE
  5
575
330
1F
100
AcDbEntity
  8
0
100
AcDbLine
 10
18.22772621135332
 20
16.66237976320958
 30
-0.5
 11
18.04022621135332
 21
16.66237976320958
 31
-0.5
  0
LINE
  5
576
330
1F
100
AcDbEntity
  8
0
100
AcDbLine
 10
17.36170080756887
 20
18.16237976320957
 30
-0.5
 11
17.17420080756887
 21
18.16237976320957
 31
-0.5
  0
LINE
  5
577
330
1F
100
AcDbEntity
  8
0
100
AcDbLine
 10
17.45545080756887
 20
21.5
 30
-0.5
 11
17.36170080756887
 21
21.66237976320957
 31
-0.5
  0
LINE
  5
578
330
1F
100
AcDbEntity
  8
0
100
AcDbLine
 10
16.49567540378443
 20
19.16237976320957
 30
-0.5
 11
16.30817540378443
 21
19.16237976320957
 31
-0.5
  0
LINE
  5
579
330
1F
100
AcDbEntity
  8
0
100
AcDbLine
 10
18.37948891324553
 20
17.24999999999999
 30
-0.5
 11
18.47323891324553
 21
17.08762023679041
 31
-0.5
  0
LINE
  5
580
330
1F
100
AcDbEntity
  8
0
100
AcDbLine
 10
16.49567540378443
 20
21.66237976320957
 30
-0.5
 11
16.30817540378443
 21
21.66237976320957
 31
-0.5
  0
LINE
  5
581
330
1F
100
AcDbEntity
  8
0
100
AcDbLine
 10
17.36170080756887
 20
21.8376202367904
 30
-0.5
 11
17.45545080756887
 21
22.0
 31
-0.5
  0
LINE
  5
582
330
1F
100
AcDbEntity
  8
0
100
AcDbLine
 10
16.74118810567665
 20
20.91237976320957
 30
-0.5
 11
16.64743810567665
 21
20.75
 31
-0.5
  0
LINE
  5
583
330
1F
100
AcDbEntity
  8
0
100
AcDbLine
 10
17.60721350946109
 20
20.58762023679042
 30
-0.5
 11
17.79471350946109
 21
20.58762023679042
 31
-0.5
  0
LINE
  5
584
330
1F
100
AcDbEntity
  8
0
100
AcDbLine
 10
17.02243810567665
 20
19.75
 30
-0.5
 11
16.92868810567665
 21
19.91237976320957
 31
-0.5
  0
LINE
  5
585
330
1F
100
AcDbEntity
  8
0
100
AcDbLine
 10
17.60721350946109
 20
21.41237976320958
 30
-0.5
 11
17.5134635094611
 21
21.25
 31
-0.5
  0
LINE
  5
586
330
1F
100
AcDbEntity
  8
0
100
AcDbLine
 10
17.79471350946109
 20
16.91237976320957
 30
-0.5
 11
17.60721350946109
 21
16.91237976320957
 31
-0.5
  0
LINE
  5
587
330
1F
100
AcDbEntity
  8
0
100
AcDbLine
 10
18.04022621135332
 20
19.16237976320957
 30
-0.5
 11
17.94647621135332
 21
19.0
 31
-0.5
  0
LINE
  5
588
330
1F
100
AcDbEntity
  8
0
100
AcDbLine
 10
17.79471350946109
 20
20.91237976320957
 30
-0.5
 11
17.60721350946109
 21
20.91237976320957
 31
-0.5
  0
LINE
  5
589
330
1F
100
AcDbEntity
  8
0
100
AcDbLine
 10
17.79471350946109
 20
20.08762023679041
 30
-0.5
 11
17.88846350946109
 21
20.25
 31
-0.5
  0
LINE
  5
590
330
1F
100
AcDbEntity
  8
0
100
AcDbLine
 10
17.17420080756887
 20
18.16237976320957
 30
-0.5
 11
17.08045080756887
 21
18.0
 31
-0.5
  0
LINE
  5
591
330
1F
100
AcDbEntity
  8
0
100
AcDbLine
 10
17.08045080756887
 20
17.49999999999999
 30
-0.5
 11
17.17420080756887
 21
17.33762023679042
 31
-0.5
  0
LINE
  5
592
330
1F
100
AcDbEntity
  8
0
100
AcDbLine
 10
17.17420080756887
 20
17.83762023679041
 30
-0.5
 11
17.36170080756887
 21
17.83762023679041
 31
-0.5
  0
LINE
  5
593
330
1F
100
AcDbEntity
  8
0
100
AcDbLine
 10
16.30817540378443
 20
17.83762023679041
 30
-0.5
 11
16.49567540378443
 21
17.83762023679041
 31
-0.5
  0
LINE
  5
594
330
1F
100
AcDbEntity
  8
0
100
AcDbLine
 10
18.32147621135332
 20
17.0
 30
-0.5
 11
18.22772621135332
 21
17.16237976320957
 31
-0.5
  0
LINE
  5
595
330
1F
100
AcDbEntity
  8
0
100
AcDbLine
 10
17.79471350946109
 20
17.41237976320958
 30
-0.5
 11
17.60721350946109
 21
17.41237976320958
 31
-0.5
  0
LINE
  5
596
330
1F
100
AcDbEntity
  8
0
100
AcDbLine
 10
17.36170080756887
 20
21.33762023679041
 30
-0.5
 11
17.45545080756887
 21
21.5
 31
-0.5
  0
LINE
  5
597
330
1F
100
AcDbEntity
  8
0
100
AcDbLine
 10
18.22772621135332
 20
16.83762023679041
 30
-0.5
 11
18.32147621135332
 21
17.0
 31
-0.5
  0
LINE
  5
598
330
1F
100
AcDbEntity
  8
0
100
AcDbLine
 10
18.66073891324553
 20
20.08762023679041
 30
-0.5
 11
18.75448891324553
 21
20.25
 31
-0.5
  0
LINE
  5
599
330
1F
100
AcDbEntity
  8
0
100
AcDbLine
 10
18.75448891324553
 20
18.25
 30
-0.5
 11
18.66073891324553
 21
18.41237976320957
 31
-0.5
  0
LINE
  5
600
330
1F
100
AcDbEntity
  8
0
100
AcDbLine
 10
18.32147621135332
 20
17.49999999999999
 30
-0.5
 11
18.22772621135332
 21
17.66237976320958
 31
-0.5
  0
LINE
  5
601
330
1F
100
AcDbEntity
  8
0
100
AcDbLine
 10
16.74118810567665
 20
21.5876202367904
 30
-0.5
 11
16.92868810567665
 21
21.5876202367904
 31
-0.5
  0
LINE
  5
602
330
1F
100
AcDbEntity
  8
0
100
AcDbLine
 10
17.60721350946109
 20
18.91237976320957
 30
-0.5
 11
17.5134635094611
 21
18.75
 31
-0.5
  0
LINE
  5
603
330
1F
100
AcDbEntity
  8
0
100
AcDbLine
 10
16.74118810567665
 20
19.41237976320957
 30
-0.5
 11
16.64743810567665
 21
19.25
 31
-0.5
  0
LINE
  5
604
330
1F
100
AcDbEntity
  8
0
100
AcDbLine
 10
17.36170080756887
 20
15.83762023679041
 30
-0.5
 11
17.45545080756887
 21
15.99999999999999
 31
-0.5
  0
LINE
  5
605
330
1F
100
AcDbEntity
  8
0
100
AcDbLine
 10
16.74118810567665
 20
16.08762023679041
 30
-0.5
 11
16.92868810567665
 21
16.08762023679041
 31
-0.5
  0
LINE
  5
606
330
1F
100
AcDbEntity
  8
0
100
AcDbLine
 10
18.22772621135332
 20
16.16237976320957
 30
-0.5
 11
18.04022621135332
 21
16.16237976320957
 31
-0.5
  0
LINE
  5
607
330
1F
100
AcDbEntity
  8
0
100
AcDbLine
 10
16.49567540378443
 20
21.8376202367904
 30
-0.5
 11
16.58942540378443
 21
22.0
 31
-0.5
  0
LINE
  5
608
330
1F
100
AcDbEntity
  8
0
100
AcDbLine
 10
16.30817540378443
 20
22.16237976320957
 30
-0.5
 11
16.21442540378443
 21
22.0
 31
-0.5
  0
LINE
  5
609
330
1F
100
AcDbEntity
  8
0
100
AcDbLine
 10
18.04022621135332
 20
16.66237976320958
 30
-0.5
 11
17.94647621135332
 21
16.49999999999999
 31
-0.5
  0
LINE
  5
610
330
1F
100
AcDbEntity
  8
0
100
AcDbLine
 10
18.32147621135332
 20
21.0
 30
-0.5
 11
18.22772621135332
 21
21.16237976320958
 31
-0.5
  0
LINE
  5
611
330
1F
100
AcDbEntity
  8
0
100
AcDbLine
 10
17.5134635094611
 20
16.25
 30
-0.5
 11
17.60721350946109
 21
16.08762023679041
 31
-0.5
  0
LINE
  5
612
330
1F
100
AcDbEntity
  8
0
100
AcDbLine
 10
16.58942540378443
 20
17.49999999999999
 30
-0.5
 11
16.49567540378443
 21
17.66237976320958
 31
-0.5
  0
LINE
  5
613
330
1F
100
AcDbEntity
  8
0
100
AcDbLine
 10
20.39278972081441
 20
16.41237976320957
 30
-0.5
 11
20.20528972081441
 21
16.41237976320957
 31
-0.5
  0
LINE
  5
614
330
1F
100
AcDbEntity
  8
0
100
AcDbLine
 10
19.7722770189222
 20
20.33762023679042
 30
-0.5
 11
19.9597770189222
 21
20.33762023679042
 31
-0.5
  0
LINE
  5
615
330
1F
100
AcDbEntity
  8
0
100
AcDbLine
 10
20.91955242270664
 20
18.0
 30
-0.5
 11
20.82580242270664
 21
18.16237976320957
 31
-0.5
  0
LINE
  5
616
330
1F
100
AcDbEntity
  8
0
100
AcDbLine
 10
20.91955242270664
 20
21.5
 30
-0.5
 11
20.82580242270664
 21
21.66237976320957
 31
-0.5
  0
LINE
  5
617
330
1F
100
AcDbEntity
  8
0
100
AcDbLine
 10
21.41057782649107
 20
21.0
 30
-0.5
 11
21.50432782649106
 21
20.83762023679041
 31
-0.5
  0
LINE
  5
618
330
1F
100
AcDbEntity
  8
0
100
AcDbLine
 10
19.09375161513776
 20
15.83762023679041
 30
-0.5
 11
19.18750161513776
 21
15.99999999999999
 31
-0.5
  0
LINE
  5
619
330
1F
100
AcDbEntity
  8
0
100
AcDbLine
 10
21.50432782649106
 20
20.83762023679041
 30
-0.5
 11
21.69182782649107
 21
20.83762023679041
 31
-0.5
  0
LINE
  5
620
330
1F
100
AcDbEntity
  8
0
100
AcDbLine
 10
21.69182782649107
 20
20.83762023679041
 30
-0.5
 11
21.78557782649106
 21
21.0
 31
-0.5
  0
LINE
  5
621
330
1F
100
AcDbEntity
  8
0
100
AcDbLine
 10
21.78557782649106
 20
17.49999999999999
 30
-0.5
 11
21.69182782649107
 21
17.66237976320958
 31
-0.5
  0
LINE
  5
622
330
1F
100
AcDbEntity
  8
0
100
AcDbLine
 10
20.39278972081441
 20
20.91237976320957
 30
-0.5
 11
20.20528972081441
 21
20.91237976320957
 31
-0.5
  0
LINE
  5
623
330
1F
100
AcDbEntity
  8
0
100
AcDbLine
 10
20.54455242270664
 20
17.49999999999999
 30
-0.5
 11
20.63830242270664
 21
17.33762023679042
 31
-0.5
  0
LINE
  5
624
330
1F
100
AcDbEntity
  8
0
100
AcDbLine
 10
20.54455242270664
 20
18.5
 30
-0.5
 11
20.63830242270664
 21
18.33762023679041
 31
-0.5
  0
LINE
  5
625
330
1F
100
AcDbEntity
  8
0
100
AcDbLine
 10
19.09375161513776
 20
20.83762023679041
 30
-0.5
 11
19.18750161513776
 21
21.0
 31
-0.5
  0
LINE
  5
626
330
1F
100
AcDbEntity
  8
0
100
AcDbLine
 10
21.78557782649106
 20
21.5
 30
-0.5
 11
21.69182782649107
 21
21.66237976320957
 31
-0.5
  0
LINE
  5
627
330
1F
100
AcDbEntity
  8
0
100
AcDbLine
 10
19.7722770189222
 20
15.83762023679041
 30
-0.5
 11
19.9597770189222
 21
15.83762023679041
 31
-0.5
  0
LINE
  5
628
330
1F
100
AcDbEntity
  8
0
100
AcDbLine
 10
21.69182782649107
 20
21.66237976320957
 30
-0.5
 11
21.50432782649106
 21
21.66237976320957
 31
-0.5
  0
LINE
  5
629
330
1F
100
AcDbEntity
  8
0
100
AcDbLine
 10
19.24551431702997
 20
17.24999999999999
 30
-0.5
 11
19.33926431702997
 21
17.08762023679041
 31
-0.5
  0
LINE
  5
630
330
1F
100
AcDbEntity
  8
0
100
AcDbLine
 10
21.50432782649106
 20
22.16237976320957
 30
-0.5
 11
21.41057782649107
 21
22.0
 31
-0.5
  0
LINE
  5
631
330
1F
100
AcDbEntity
  8
0
100
AcDbLine
 10
19.6785270189222
 20
18.5
 30
-0.5
 11
19.7722770189222
 21
18.33762023679041
 31
-0.5
  0
LINE
  5
632
330
1F
100
AcDbEntity
  8
0
100
AcDbLine
 10
19.9597770189222
 20
15.83762023679041
 30
-0.5
 11
20.0535270189222
 21
15.99999999999999
 31
-0.5
  0
LINE
  5
633
330
1F
100
AcDbEntity
  8
0
100
AcDbLine
 10
21.25881512459885
 20
21.91237976320957
 30
-0.5
 11
21.07131512459885
 21
21.91237976320957
 31
-0.5
  0
LINE
  5
634
330
1F
100
AcDbEntity
  8
0
100
AcDbLine
 10
21.50432782649106
 20
21.8376202367904
 30
-0.5
 11
21.69182782649107
 21
21.8376202367904
 31
-0.5
  0
LINE
  5
635
330
1F
100
AcDbEntity
  8
0
100
AcDbLine
 10
18.81250161513776
 20
21.5
 30
-0.5
 11
18.90625161513776
 21
21.33762023679041
 31
-0.5
  0
LINE
  5
636
330
1F
100
AcDbEntity
  8
0
100
AcDbLine
 10
18.90625161513776
 20
20.66237976320957
 30
-0.5
 11
18.81250161513776
 21
20.5
 31
-0.5
  0
LINE
  5
637
330
1F
100
AcDbEntity
  8
0
100
AcDbLine
 10
21.50432782649106
 20
19.16237976320957
 30
-0.5
 11
21.41057782649107
 21
19.0
 31
-0.5
  0
LINE
  5
638
330
1F
100
AcDbEntity
  8
0
100
AcDbLine
 10
20.97756512459885
 20
17.24999999999999
 30
-0.5
 11
21.07131512459885
 21
17.08762023679041
 31
-0.5
  0
LINE
  5
639
330
1F
100
AcDbEntity
  8
0
100
AcDbLine
 10
19.33926431702997
 20
21.5876202367904
 30
-0.5
 11
19.52676431702997
 21
21.5876202367904
 31
-0.5
  0
LINE
  5
640
330
1F
100
AcDbEntity
  8
0
100
AcDbLine
 10
19.24551431702997
 20
19.25
 30
-0.5
 11
19.33926431702997
 21
19.08762023679041
 31
-0.5
  0
LINE
  5
641
330
1F
100
AcDbEntity
  8
0
100
AcDbLine
 10
20.97756512459885
 20
18.75
 30
-0.5
 11
21.07131512459885
 21
18.58762023679041
 31
-0.5
  0
LINE
  5
642
330
1F
100
AcDbEntity
  8
0
100
AcDbLine
 10
19.62051431702997
 20
16.74999999999999
 30
-0.5
 11
19.52676431702997
 21
16.91237976320957
 31
-0.5
  0
LINE
  5
643
330
1F
100
AcDbEntity
  8
0
100
AcDbLine
 10
19.24551431702997
 20
18.75
 30
-0.5
 11
19.33926431702997
 21
18.58762023679041
 31
-0.5
  0
LINE
  5
644
330
1F
100
AcDbEntity
  8
0
100
AcDbLine
 10
21.50432782649106
 20
17.83762023679041
 30
-0.5
 11
21.69182782649107
 21
17.83762023679041
 31
-0.5
  0
LINE
  5
645
330
1F
100
AcDbEntity
  8
0
100
AcDbLine
 10
20.82580242270664
 20
20.66237976320957
 30
-0.5
 11
20.63830242270664
 21
20.66237976320957
 31
-0.5
  0
LINE
  5
646
330
1F
100
AcDbEntity
  8
0
100
AcDbLine
 10
21.50432782649106
 20
16.16237976320958
 30
-0.5
 11
21.41057782649107
 21
15.99999999999999
 31
-0.5
  0
LINE
  5
647
330
1F
100
AcDbEntity
  8
0
100
AcDbLine
 10
21.69182782649107
 20
17.83762023679041
 30
-0.5
 11
21.78557782649106
 21
18.0
 31
-0.5
  0
LINE
  5
648
330
1F
100
AcDbEntity
  8
0
100
AcDbLine
 10
19.7722770189222
 20
19.66237976320957
 30
-0.5
 11
19.6785270189222
 21
19.5
 31
-0.5
  0
LINE
  5
649
330
1F
100
AcDbEntity
  8
0
100
AcDbLine
 10
20.82580242270664
 20
18.83762023679041
 30
-0.5
 11
20.91955242270664
 21
19.0
 31
-0.5
  0
LINE
  5
650
330
1F
100
AcDbEntity
  8
0
100
AcDbLine
 10
21.78557782649106
 20
16.49999999999999
 30
-0.5
 11
21.69182782649107
 21
16.66237976320958
 31
-0.5
  0
LINE
  5
651
330
1F
100
AcDbEntity
  8
0
100
AcDbLine
 10
19.52676431702997
 20
17.08762023679041
 30
-0.5
 11
19.62051431702997
 21
17.24999999999999
 31
-0.5
  0
LINE
  5
652
330
1F
100
AcDbEntity
  8
0
100
AcDbLine
 10
20.82580242270664
 20
21.66237976320957
 30
-0.5
 11
20.63830242270664
 21
21.66237976320957
 31
-0.5
  0
LINE
  5
653
330
1F
100
AcDbEntity
  8
0
100
AcDbLine
 10
21.25881512459885
 20
16.58762023679042
 30
-0.5
 11
21.35256512459885
 21
16.74999999999999
 31
-0.5
  0
LINE
  5
654
330
1F
100
AcDbEntity
  8
0
100
AcDbLine
 10
21.25881512459885
 20
20.08762023679041
 30
-0.5
 11
21.35256512459885
 21
20.25
 31
-0.5
  0
LINE
  5
655
330
1F
100
AcDbEntity
  8
0
100
AcDbLine
 10
19.7722770189222
 20
18.33762023679041
 30
-0.5
 11
19.9597770189222
 21
18.33762023679041
 31
-0.5
  0
LINE
  5
656
330
1F
100
AcDbEntity
  8
0
100
AcDbLine
 10
21.25881512459885
 20
17.91237976320957
 30
-0.5
 11
21.07131512459885
 21
17.91237976320957
 31
-0.5
  0
LINE
  5
657
330
1F
100
AcDbEntity
  8
0
100
AcDbLine
 10
19.7722770189222
 20
21.8376202367904
 30
-0.5
 11
19.9597770189222
 21
21.8376202367904
 31
-0.5
  0
LINE
  5
658
330
1F
100
AcDbEntity
  8
0
100
AcDbLine
 10
21.41057782649107
 20
17.49999999999999
 30
-0.5
 11
21.50432782649106
 21
17.33762023679042
 31
-0.5
  0
LINE
  5
659
330
1F
100
AcDbEntity
  8
0
100
AcDbLine
 10
20.91955242270664
 20
20.5
 30
-0.5
 11
20.82580242270664
 21
20.66237976320957
 31
-0.5
  0
LINE
  5
660
330
1F
100
AcDbEntity
  8
0
100
AcDbLine
 10
19.7722770189222
 20
18.83762023679041
 30
-0.5
 11
19.9597770189222
 21
18.83762023679041
 31
-0.5
  0
LINE
  5
661
330
1F
100
AcDbEntity
  8
0
100
AcDbLine
 10
20.0535270189222
 20
18.5
 30
-0.5
 11
19.9597770189222
 21
18.66237976320957
 31
-0.5
  0
LINE
  5
662
330
1F
100
AcDbEntity
  8
0
100
AcDbLine
 10
20.20528972081441
 20
17.41237976320958
 30
-0.5
 11
20.11153972081441
 21
17.24999999999999
 31
-0.5
  0
LINE
  5
663
330
1F
100
AcDbEntity
  8
0
100
AcDbLine
 10
19.9597770189222
 20
21.16237976320958
 30
-0.5
 11
19.7722770189222
 21
21.16237976320958
 31
-0.5
  0
LINE
  5
664
330
1F
100
AcDbEntity
  8
0
100
AcDbLine
 10
21.41057782649107
 20
18.0
 30
-0.5
 11
21.50432782649106
 21
17.83762023679041
 31
-0.5
  0
LINE
  5
665
330
1F
100
AcDbEntity
  8
0
100
AcDbLine
 10
20.48653972081441
 20
16.25
 30
-0.5
 11
20.39278972081441
 21
16.41237976320957
 31
-0.5
  0
LINE
  5
666
330
1F
100
AcDbEntity
  8
0
100
AcDbLine
 10
20.91955242270664
 20
17.0
 30
-0.5
 11
20.82580242270664
 21
17.16237976320957
 31
-0.5
  0
LINE
  5
667
330
1F
100
AcDbEntity
  8
0
100
AcDbLine
 10
19.33926431702997
 20
21.08762023679041
 30
-0.5
 11
19.52676431702997
 21
21.08762023679041
 31
-0.5
  0
LINE
  5
668
330
1F
100
AcDbEntity
  8
0
100
AcDbLine
 10
21.93734052838329
 20
16.58762023679042
 30
-0.5
 11
22.12484052838329
 21
16.58762023679042
 31
-0.5
  0
LINE
  5
669
330
1F
100
AcDbEntity
  8
0
100
AcDbLine
 10
19.7722770189222
 20
18.66237976320957
 30
-0.5
 11
19.6785270189222
 21
18.5
 31
-0.5
  0
LINE
  5
670
330
1F
100
AcDbEntity
  8
0
100
AcDbLine
 10
22.12484052838329
 20
16.58762023679042
 30
-0.5
 11
22.21859052838329
 21
16.74999999999999
 31
-0.5
  0
LINE
  5
671
330
1F
100
AcDbEntity
  8
0
100
AcDbLine
 10
22.12484052838329
 20
16.91237976320957
 30
-0.5
 11
21.93734052838329
 21
16.91237976320957
 31
-0.5
  0
LINE
  5
672
330
1F
100
AcDbEntity
  8
0
100
AcDbLine
 10
19.6785270189222
 20
16.49999999999999
 30
-0.5
 11
19.7722770189222
 21
16.33762023679041
 31
-0.5
  0
LINE
  5
673
330
1F
100
AcDbEntity
  8
0
100
AcDbLine
 10
21.93734052838329
 20
17.41237976320958
 30
-0.5
 11
21.84359052838329
 21
17.24999999999999
 31
-0.5
  0
LINE
  5
674
330
1F
100
AcDbEntity
  8
0
100
AcDbLine
 10
19.52676431702997
 20
17.91237976320957
 30
-0.5
 11
19.33926431702997
 21
17.91237976320957
 31
-0.5
  0
LINE
  5
675
330
1F
100
AcDbEntity
  8
0
100
AcDbLine
 10
20.54455242270664
 20
20.5
 30
-0.5
 11
20.63830242270664
 21
20.33762023679042
 31
-0.5
  0
LINE
  5
676
330
1F
100
AcDbEntity
  8
0
100
AcDbLine
 10
19.33926431702997
 20
21.41237976320958
 30
-0.5
 11
19.24551431702997
 21
21.25
 31
-0.5
  0
LINE
  5
677
330
1F
100
AcDbEntity
  8
0
100
AcDbLine
 10
19.52676431702997
 20
21.5876202367904
 30
-0.5
 11
19.62051431702997
 21
21.75
 31
-0.5
  0
LINE
  5
678
330
1F
100
AcDbEntity
  8
0
100
AcDbLine
 10
21.25881512459885
 20
19.08762023679041
 30
-0.5
 11
21.35256512459885
 21
19.25
 31
-0.5
  0
LINE
  5
679
330
1F
100
AcDbEntity
  8
0
100
AcDbLine
 10
20.20528972081441
 20
16.41237976320957
 30
-0.5
 11
20.11153972081441
 21
16.25
 31
-0.5
  0
LINE
  5
680
330
1F
100
AcDbEntity
  8
0
100
AcDbLine
 10
21.84359052838329
 20
17.24999999999999
 30
-0.5
 11
21.93734052838329
 21
17.08762023679041
 31
-0.5
  0
LINE
  5
681
330
1F
100
AcDbEntity
  8
0
100
AcDbLine
 10
21.50432782649106
 20
18.66237976320957
 30
-0.5
 11
21.41057782649107
 21
18.5
 31
-0.5
  0
LINE
  5
682
330
1F
100
AcDbEntity
  8
0
100
AcDbLine
 10
19.18750161513776
 20
17.0
 30
-0.5
 11
19.09375161513776
 21
17.16237976320957
 31
-0.5
  0
LINE
  5
683
330
1F
100
AcDbEntity
  8
0
100
AcDbLine
 10
20.48653972081441
 20
17.75
 30
-0.5
 11
20.39278972081441
 21
17.91237976320957
 31
-0.5
  0
LINE
  5
684
330
1F
100
AcDbEntity
  8
0
100
AcDbLine
 10
19.6785270189222
 20
20.5
 30
-0.5
 11
19.7722770189222
 21
20.33762023679042
 31
-0.5
  0
LINE
  5
685
330
1F
100
AcDbEntity
  8
0
100
AcDbLine
 10
21.25881512459885
 20
18.58762023679041
 30
-0.5
 11
21.35256512459885
 21
18.75
 31
-0.5
  0
LINE
  5
686
330
1F
100
AcDbEntity
  8
0
100
AcDbLine
 10
21.50432782649106
 20
16.83762023679041
 30
-0.5
 11
21.69182782649107
 21
16.83762023679041
 31
-0.5
  0
LINE
  5
687
330
1F
100
AcDbEntity
  8
0
100
AcDbLine
 10
20.63830242270664
 20
20.33762023679042
 30
-0.5
 11
20.82580242270664
 21
20.33762023679042
 31
-0.5
  0
LINE
  5
688
330
1F
100
AcDbEntity
  8
0
100
AcDbLine
 10
21.69182782649107
 20
16.33762023679041
 30
-0.5
 11
21.78557782649106
 21
16.49999999999999
 31
-0.5
  0
LINE
  5
689
330
1F
100
AcDbEntity
  8
0
100
AcDbLine
 10
21.07131512459885
 20
20.41237976320958
 30
-0.5
 11
20.97756512459885
 21
20.25
 31
-0.5
  0
LINE
  5
690
330
1F
100
AcDbEntity
  8
0
100
AcDbLine
 10
21.25881512459885
 20
19.91237976320957
 30
-0.5
 11
21.07131512459885
 21
19.91237976320957
 31
-0.5
  0
LINE
  5
691
330
1F
100
AcDbEntity
  8
0
100
AcDbLine
 10
20.63830242270664
 20
19.33762023679041
 30
-0.5
 11
20.82580242270664
 21
19.33762023679041
 31
-0.5
  0
LINE
  5
692
330
1F
100
AcDbEntity
  8
0
100
AcDbLine
 10
19.33926431702997
 20
21.91237976320957
 30
-0.5
 11
19.24551431702997
 21
21.75
 31
-0.5
  0
LINE
  5
693
330
1F
100
AcDbEntity
  8
0
100
AcDbLine
 10
21.07131512459885
 20
16.58762023679042
 30
-0.5
 11
21.25881512459885
 21
16.58762023679042
 31
-0.5
  0
LINE
  5
694
330
1F
100
AcDbEntity
  8
0
100
AcDbLine
 10
19.62051431702997
 20
18.75
 30
-0.5
 11
19.52676431702997
 21
18.91237976320957
 31
-0.5
  0
LINE
  5
695
330
1F
100
AcDbEntity
  8
0
100
AcDbLine
 10
20.20528972081441
 20
18.41237976320957
 30
-0.5
 11
20.11153972081441
 21
18.25
 31
-0.5
  0
LINE
  5
696
330
1F
100
AcDbEntity
  8
0
100
AcDbLine
 10
21.50432782649106
 20
20.66237976320957
 30
-0.5
 11
21.41057782649107
 21
20.5
 31
-0.5
  0
LINE
  5
697
330
1F
100
AcDbEntity
  8
0
100
AcDbLine
 10
18.90625161513776
 20
17.83762023679041
 30
-0.5
 11
19.09375161513776
 21
17.83762023679041
 31
-0.5
  0
LINE
  5
698
330
1F
100
AcDbEntity
  8
0
100
AcDbLine
 10
20.39278972081441
 20
19.41237976320957
 30
-0.5
 11
20.20528972081441
 21
19.41237976320957
 31
-0.5
  0
LINE
  5
699
330
1F
100
AcDbEntity
  8
0
100
AcDbLine
 10
19.52676431702997
 20
18.58762023679041
 30
-0.5
 11
19.62051431702997
 21
18.75
 31
-0.5
  0
LINE
  5
700
330
1F
100
AcDbEntity
  8
0
100
AcDbLine
 10
20.91955242270664
 20
19.0
 30
-0.5
 11
20.82580242270664
 21
19.16237976320957
 31
-0.5
  0
LINE
  5
701
330
1F
100
AcDbEntity
  8
0
100
AcDbLine
 10
19.33926431702997
 20
17.91237976320957
 30
-0.5
 11
19.24551431702997
 21
17.75
 31
-0.5
  0
LINE
  5
702
330
1F
100
AcDbEntity
  8
0
100
AcDbLine
 10
21.69182782649107
 20
20.33762023679042
 30
-0.5
 11
21.78557782649106
 21
20.5
 31
-0.5
  0
LINE
  5
703
330
1F
100
AcDbEntity
  8
0
100
AcDbLine
 10
21.78557782649106
 20
21.0
 30
-0.5
 11
21.69182782649107
 21
21.16237976320958
 31
-0.5
  0
LINE
  5
704
330
1F
100
AcDbEntity
  8
0
100
AcDbLine
 10
21.25881512459885
 20
20.58762023679042
 30
-0.5
 11
21.35256512459885
 21
20.75
 31
-0.5
  0
LINE
  5
705
330
1F
100
AcDbEntity
  8
0
100
AcDbLine
 10
19.7722770189222
 20
16.16237976320957
 30
-0.5
 11
19.6785270189222
 21
15.99999999999999
 31
-0.5
  0
LINE
  5
706
330
1F
100
AcDbEntity
  8
0
100
AcDbLine
 10
20.97756512459885
 20
20.75
 30
-0.5
 11
21.07131512459885
 21
20.58762023679042
 31
-0.5
  0
LINE
  5
707
330
1F
100
AcDbEntity
  8
0
100
AcDbLine
 10
19.9597770189222
 20
16.33762023679041
 30
-0.5
 11
20.0535270189222
 21
16.49999999999999
 31
-0.5
  0
LINE
  5
708
330
1F
100
AcDbEntity
  8
0
100
AcDbLine
 10
21.69182782649107
 20
21.16237976320958
 30
-0.5
 11
21.50432782649106
 21
21.16237976320958
 31
-0.5
  0
LINE
  5
709
330
1F
100
AcDbEntity
  8
0
100
AcDbLine
 10
19.24551431702997
 20
21.25
 30
-0.5
 11
19.33926431702997
 21
21.08762023679041
 31
-0.5
  0
LINE
  5
710
330
1F
100
AcDbEntity
  8
0
100
AcDbLine
 10
20.97756512459885
 20
16.25
 30
-0.5
 11
21.07131512459885
 21
16.08762023679041
 31
-0.5
  0
LINE
  5
711
330
1F
100
AcDbEntity
  8
0
100
AcDbLine
 10
18.47323891324553
 20
21.5876202367904
 30
-0.5
 11
18.66073891324553
 21
21.5876202367904
 31
-0.5
  0
LINE
  5
712
330
1F
100
AcDbEntity
  8
0
100
AcDbLine
 10
21.35256512459885
 20
21.75
 30
-0.5
 11
21.25881512459885
 21
21.91237976320957
 31
-0.5
  0
LINE
  5
713
330
1F
100
AcDbEntity
  8
0
100
AcDbLine
 10
20.0535270189222
 20
17.0
 30
-0.5
 11
19.9597770189222
 21
17.16237976320957
 31
-0.5
  0
LINE
  5
714
330
1F
100
AcDbEntity
  8
0
100
AcDbLine
 10
19.9597770189222
 20
18.33762023679041
 30
-0.5
 11
20.0535270189222
 21
18.5
 31
-0.5
  0
LINE
  5
715
330
1F
100
AcDbEntity
  8
0
100
AcDbLine
 10
20.82580242270664
 20
20.33762023679042
 30
-0.5
 11
20.91955242270664
 21
20.5
 31
-0.5
  0
LINE
  5
716
330
1F
100
AcDbEntity
  8
0
100
AcDbLine
 10
20.20528972081441
 20
18.08762023679041
 30
-0.5
 11
20.39278972081441
 21
18.08762023679041
 31
-0.5
  0
LINE
  5
717
330
1F
100
AcDbEntity
  8
0
100
AcDbLine
 10
18.81250161513776
 20
18.5
 30
-0.5
 11
18.90625161513776
 21
18.33762023679041
 31
-0.5
  0
LINE
  5
718
330
1F
100
AcDbEntity
  8
0
100
AcDbLine
 10
21.78557782649106
 20
17.0
 30
-0.5
 11
21.69182782649107
 21
17.16237976320957
 31
-0.5
  0
LINE
  5
719
330
1F
100
AcDbEntity
  8
0
100
AcDbLine
 10
20.82580242270664
 20
16.66237976320958
 30
-0.5
 11
20.63830242270664
 21
16.66237976320958
 31
-0.5
  0
LINE
  5
720
330
1F
100
AcDbEntity
  8
0
100
AcDbLine
 10
20.91955242270664
 20
22.0
 30
-0.5
 11
20.82580242270664
 21
22.16237976320957
 31
-0.5
  0
LINE
  5
721
330
1F
100
AcDbEntity
  8
0
100
AcDbLine
 10
18.37948891324553
 20
21.75
 30
-0.5
 11
18.47323891324553
 21
21.5876202367904
 31
-0.5
  0
LINE
  5
722
330
1F
100
AcDbEntity
  8
0
100
AcDbLine
 10
20.39278972081441
 20
20.08762023679041
 30
-0.5
 11
20.48653972081441
 21
20.25
 31
-0.5
  0
LINE
  5
723
330
1F
100
AcDbEntity
  8
0
100
AcDbLine
 10
20.82580242270664
 20
16.16237976320957
 30
-0.5
 11
20.63830242270664
 21
16.16237976320957
 31
-0.5
  0
LINE
  5
724
330
1F
100
AcDbEntity
  8
0
100
AcDbLine
 10
19.24551431702997
 20
16.74999999999999
 30
-0.5
 11
19.33926431702997
 21
16.58762023679042
 31
-0.5
  0
LINE
  5
725
330
1F
100
AcDbEntity
  8
0
100
AcDbLine
 10
22.21859052838329
 20
16.74999999999999
 30
-0.5
 11
22.12484052838329
 21
16.91237976320957
 31
-0.5
  0
LINE
  5
726
330
1F
100
AcDbEntity
  8
0
100
AcDbLine
 10
19.33926431702997
 20
18.08762023679041
 30
-0.5
 11
19.52676431702997
 21
18.08762023679041
 31
-0.5
  0
LINE
  5
727
330
1F
100
AcDbEntity
  8
0
100
AcDbLine
 10
20.54455242270664
 20
20.0
 30
-0.5
 11
20.63830242270664
 21
19.83762023679041
 31
-0.5
  0
LINE
  5
728
330
1F
100
AcDbEntity
  8
0
100
AcDbLine
 10
21.41057782649107
 20
19.0
 30
-0.5
 11
21.50432782649106
 21
18.83762023679041
 31
-0.5
  0
LINE
  5
729
330
1F
100
AcDbEntity
  8
0
100
AcDbLine
 10
20.0535270189222
 20
20.5
 30
-0.5
 11
19.9597770189222
 21
20.66237976320957
 31
-0.5
  0
LINE
  5
730
330
1F
100
AcDbEntity
  8
0
100
AcDbLine
 10
19.52676431702997
 20
16.08762023679041
 30
-0.5
 11
19.62051431702997
 21
16.25
 31
-0.5
  0
LINE
  5
731
330
1F
100
AcDbEntity
  8
0
100
AcDbLine
 10
19.7722770189222
 20
21.33762023679041
 30
-0.5
 11
19.9597770189222
 21
21.33762023679041
 31
-0.5
  0
LINE
  5
732
330
1F
100
AcDbEntity
  8
0
100
AcDbLine
 10
20.82580242270664
 20
21.8376202367904
 30
-0.5
 11
20.91955242270664
 21
22.0
 31
-0.5
  0
LINE
  5
733
330
1F
100
AcDbEntity
  8
0
100
AcDbLine
 10
21.50432782649106
 20
19.33762023679041
 30
-0.5
 11
21.69182782649107
 21
19.33762023679041
 31
-0.5
  0
LINE
  5
734
330
1F
100
AcDbEntity
  8
0
100
AcDbLine
 10
19.09375161513776
 20
21.33762023679041
 30
-0.5
 11
19.18750161513776
 21
21.5
 31
-0.5
  0
LINE
  5
735
330
1F
100
AcDbEntity
  8
0
100
AcDbLine
 10
21.69182782649107
 20
19.33762023679041
 30
-0.5
 11
21.78557782649106
 21
19.5
 31
-0.5
  0
LINE
  5
736
330
1F
100
AcDbEntity
  8
0
100
AcDbLine
 10
19.52676431702997
 20
19.41237976320957
 30
-0.5
 11
19.33926431702997
 21
19.41237976320957
 31
-0.5
  0
LINE
  5
737
330
1F
100
AcDbEntity
  8
0
100
AcDbLine
 10
21.78557782649106
 20
19.5
 30
-0.5
 11
21.69182782649107
 21
19.66237976320957
 31
-0.5
  0
LINE
  5
738
330
1F
100
AcDbEntity
  8
0
100
AcDbLine
 10
19.33926431702997
 20
18.58762023679041
 30
-0.5
 11
19.52676431702997
 21
18.58762023679041
 31
-0.5
  0
LINE
  5
739
330
1F
100
AcDbEntity
  8
0
100
AcDbLine
 10
20.39278972081441
 20
16.08762023679041
 30
-0.5
 11
20.48653972081441
 21
16.25
 31
-0.5
  0
LINE
  5
740
330
1F
100
AcDbEntity
  8
0
100
AcDbLine
 10
18.90625161513776
 20
21.66237976320957
 30
-0.5
 11
18.81250161513776
 21
21.5
 31
-0.5
  0
LINE
  5
741
330
1F
100
AcDbEntity
  8
0
100
AcDbLine
 10
20.20528972081441
 20
16.58762023679042
 30
-0.5
 11
20.39278972081441
 21
16.58762023679042
 31
-0.5
  0
LINE
  5
742
330
1F
100
AcDbEntity
  8
0
100
AcDbLine
 10
18.90625161513776
 20
19.16237976320957
 30
-0.5
 11
18.81250161513776
 21
19.0
 31
-0.5
  0
LINE
  5
743
330
1F
100
AcDbEntity
  8
0
100
AcDbLine
 10
20.63830242270664
 20
17.66237976320958
 30
-0.5
 11
20.54455242270664
 21
17.49999999999999
 31
-0.5
  0
LINE
  5
744
330
1F
100
AcDbEntity
  8
0
100
AcDbLine
 10
19.52676431702997
 20
18.08762023679041
 30
-0.5
 11
19.62051431702997
 21
18.25
 31
-0.5
  0
LINE
  5
745
330
1F
100
AcDbEntity
  8
0
100
AcDbLine
 10
21.69182782649107
 20
19.66237976320957
 30
-0.5
 11
21.50432782649106
 21
19.66237976320957
 31
-0.5
  0
LINE
  5
746
330
1F
100
AcDbEntity
  8
0
100
AcDbLine
 10
19.18750161513776
 20
19.5
 30
-0.5
 11
19.09375161513776
 21
19.66237976320957
 31
-0.5
  0
LINE
  5
747
330
1F
100
AcDbEntity
  8
0
100
AcDbLine
 10
21.50432782649106
 20
20.16237976320958
 30
-0.5
 11
21.41057782649107
 21
20.0
 31
-0.5
  0
LINE
  5
748
330
1F
100
AcDbEntity
  8
0
100
AcDbLine
 10
21.41057782649107
 20
20.0
 30
-0.5
 11
21.50432782649106
 21
19.83762023679041
 31
-0.5
  0
LINE
  5
749
330
1F
100
AcDbEntity
  8
0
100
AcDbLine
 10
20.63830242270664
 20
16.66237976320958
 30
-0.5
 11
20.54455242270664
 21
16.49999999999999
 31
-0.5
  0
LINE
  5
750
330
1F
100
AcDbEntity
  8
0
100
AcDbLine
 10
20.11153972081441
 20
18.75
 30
-0.5
 11
20.20528972081441
 21
18.58762023679041
 31
-0.5
  0
LINE
  5
751
330
1F
100
AcDbEntity
  8
0
100
AcDbLine
 10
21.93734052838329
 20
21.5876202367904
 30
-0.5
 11
22.12484052838329
 21
21.5876202367904
 31
-0.5
  0
LINE
  5
752
330
1F
100
AcDbEntity
  8
0
100
AcDbLine
 10
18.90625161513776
 20
19.33762023679041
 30
-0.5
 11
19.09375161513776
 21
19.33762023679041
 31
-0.5
  0
LINE
  5
753
330
1F
100
AcDbEntity
  8
0
100
AcDbLine
 10
22.12484052838329
 20
21.5876202367904
 30
-0.5
 11
22.21859052838329
 21
21.75
 31
-0.5
  0
LINE
  5
754
330
1F
100
AcDbEntity
  8
0
100
AcDbLine
 10
19.18750161513776
 20
21.5
 30
-0.5
 11
19.09375161513776
 21
21.66237976320957
 31
-0.5
  0
LINE
  5
755
330
1F
100
AcDbEntity
  8
0
100
AcDbLine
 10
20.82580242270664
 20
19.16237976320957
 30
-0.5
 11
20.63830242270664
 21
19.16237976320957
 31
-0.5
  0
LINE
  5
756
330
1F
100
AcDbEntity
  8
0
100
AcDbLine
 10
22.21859052838329
 20
21.75
 30
-0.5
 11
22.12484052838329
 21
21.91237976320957
 31
-0.5
  0
LINE
  5
757
330
1F
100
AcDbEntity
  8
0
100
AcDbLine
 10
19.09375161513776
 20
21.16237976320958
 30
-0.5
 11
18.90625161513776
 21
21.16237976320958
 31
-0.5
  0
LINE
  5
758
330
1F
100
AcDbEntity
  8
0
100
AcDbLine
 10
21.41057782649107
 20
18.5
 30
-0.5
 11
21.50432782649106
 21
18.33762023679041
 31
-0.5
  0
LINE
  5
759
330
1F
100
AcDbEntity
  8
0
100
AcDbLine
 10
21.50432782649106
 20
18.33762023679041
 30
-0.5
 11
21.69182782649107
 21
18.33762023679041
 31
-0.5
  0
LINE
  5
760
330
1F
100
AcDbEntity
  8
0
100
AcDbLine
 10
22.12484052838329
 20
20.41237976320958
 30
-0.5
 11
21.93734052838329
 21
20.41237976320958
 31
-0.5
  0
LINE
  5
761
330
1F
100
AcDbEntity
  8
0
100
AcDbLine
 10
20.39278972081441
 20
16.91237976320957
 30
-0.5
 11
20.20528972081441
 21
16.91237976320957
 31
-0.5
  0
LINE
  5
762
330
1F
100
AcDbEntity
  8
0
100
AcDbLine
 10
18.75448891324553
 20
21.25
 30
-0.5
 11
18.66073891324553
 21
21.41237976320958
 31
-0.5
  0
LINE
  5
763
330
1F
100
AcDbEntity
  8
0
100
AcDbLine
 10
19.9597770189222
 20
20.66237976320957
 30
-0.5
 11
19.7722770189222
 21
20.66237976320957
 31
-0.5
  0
LINE
  5
764
330
1F
100
AcDbEntity
  8
0
100
AcDbLine
 10
18.90625161513776
 20
20.16237976320958
 30
-0.5
 11
18.81250161513776
 21
20.0
 31
-0.5
  0
LINE
  5
765
330
1F
100
AcDbEntity
  8
0
100
AcDbLine
 10
21.84359052838329
 20
20.75
 30
-0.5
 11
21.93734052838329
 21
20.58762023679042
 31
-0.5
  0
LINE
  5
766
330
1F
100
AcDbEntity
  8
0
100
AcDbLine
 10
19.18750161513776
 20
21.0
 30
-0.5
 11
19.09375161513776
 21
21.16237976320958
 31
-0.5
  0
LINE
  5
767
330
1F
100
AcDbEntity
  8
0
100
AcDbLine
 10
20.82580242270664
 20
18.16237976320957
 30
-0.5
 11
20.63830242270664
 21
18.16237976320957
 31
-0.5
  0
LINE
  5
768
330
1F
100
AcDbEntity
  8
0
100
AcDbLine
 10
21.93734052838329
 20
20.58762023679042
 30
-0.5
 11
22.12484052838329
 21
20.58762023679042
 31
-0.5
  0
LINE
  5
769
330
1F
100
AcDbEntity
  8
0
100
AcDbLine
 10
21.93734052838329
 20
21.91237976320957
 30
-0.5
 11
21.84359052838329
 21
21.75
 31
-0.5
  0
LINE
  5
770
330
1F
100
AcDbEntity
  8
0
100
AcDbLine
 10
21.35256512459885
 20
17.24999999999999
 30
-0.5
 11
21.25881512459885
 21
17.41237976320958
 31
-0.5
  0
LINE
  5
771
330
1F
100
AcDbEntity
  8
0
100
AcDbLine
 10
21.84359052838329
 20
21.75
 30
-0.5
 11
21.93734052838329
 21
21.5876202367904
 31
-0.5
  0
LINE
  5
772
330
1F
100
AcDbEntity
  8
0
100
AcDbLine
 10
18.81250161513776
 20
19.0
 30
-0.5
 11
18.90625161513776
 21
18.83762023679041
 31
-0.5
  0
LINE
  5
773
330
1F
100
AcDbEntity
  8
0
100
AcDbLine
 10
21.78557782649106
 20
15.99999999999999
 30
-0.5
 11
21.69182782649107
 21
16.16237976320958
 31
-0.5
  0
LINE
  5
774
330
1F
100
AcDbEntity
  8
0
100
AcDbLine
 10
19.6785270189222
 20
21.5
 30
-0.5
 11
19.7722770189222
 21
21.33762023679041
 31
-0.5
  0
LINE
  5
775
330
1F
100
AcDbEntity
  8
0
100
AcDbLine
 10
20.82580242270664
 20
20.83762023679041
 30
-0.5
 11
20.91955242270664
 21
21.0
 31
-0.5
  0
LINE
  5
776
330
1F
100
AcDbEntity
  8
0
100
AcDbLine
 10
21.78557782649106
 20
20.0
 30
-0.5
 11
21.69182782649107
 21
20.16237976320958
 31
-0.5
  0
LINE
  5
777
330
1F
100
AcDbEntity
  8
0
100
AcDbLine
 10
19.52676431702997
 20
17.41237976320958
 30
-0.5
 11
19.33926431702997
 21
17.41237976320958
 31
-0.5
  0
LINE
  5
778
330
1F
100
AcDbEntity
  8
0
100
AcDbLine
 10
21.69182782649107
 20
20.16237976320958
 30
-0.5
 11
21.50432782649106
 21
20.16237976320958
 31
-0.5
  0
LINE
  5
779
330
1F
100
AcDbEntity
  8
0
100
AcDbLine
 10
20.82580242270664
 20
21.33762023679041
 30
-0.5
 11
20.91955242270664
 21
21.5
 31
-0.5
  0
LINE
  5
780
330
1F
100
AcDbEntity
  8
0
100
AcDbLine
 10
18.90625161513776
 20
19.83762023679041
 30
-0.5
 11
19.09375161513776
 21
19.83762023679041
 31
-0.5
  0
LINE
  5
781
330
1F
100
AcDbEntity
  8
0
100
AcDbLine
 10
20.54455242270664
 20
22.0
 30
-0.5
 11
20.63830242270664
 21
21.8376202367904
 31
-0.5
  0
LINE
  5
782
330
1F
100
AcDbEntity
  8
0
100
AcDbLine
 10
20.20528972081441
 20
21.5876202367904
 30
-0.5
 11
20.39278972081441
 21
21.5876202367904
 31
-0.5
  0
LINE
  5
783
330
1F
100
AcDbEntity
  8
0
100
AcDbLine
 10
21.35256512459885
 20
19.75
 30
-0.5
 11
21.25881512459885
 21
19.91237976320957
 31
-0.5
  0
LINE
  5
784
330
1F
100
AcDbEntity
  8
0
100
AcDbLine
 10
18.81250161513776
 20
22.0
 30
-0.5
 11
18.90625161513776
 21
21.8376202367904
 31
-0.5
  0
LINE
  5
785
330
1F
100
AcDbEntity
  8
0
100
AcDbLine
 10
19.33926431702997
 20
16.91237976320957
 30
-0.5
 11
19.24551431702997
 21
16.74999999999999
 31
-0.5
  0
LINE
  5
786
330
1F
100
AcDbEntity
  8
0
100
AcDbLine
 10
20.63830242270664
 20
21.66237976320957
 30
-0.5
 11
20.54455242270664
 21
21.5
 31
-0.5
  0
LINE
  5
787
330
1F
100
AcDbEntity
  8
0
100
AcDbLine
 10
19.62051431702997
 20
21.75
 30
-0.5
 11
19.52676431702997
 21
21.91237976320957
 31
-0.5
  0
LINE
  5
788
330
1F
100
AcDbEntity
  8
0
100
AcDbLine
 10
21.69182782649107
 20
16.66237976320958
 30
-0.5
 11
21.50432782649106
 21
16.66237976320958
 31
-0.5
  0
LINE
  5
789
330
1F
100
AcDbEntity
  8
0
100
AcDbLine
 10
20.82580242270664
 20
17.33762023679042
 30
-0.5
 11
20.91955242270664
 21
17.49999999999999
 31
-0.5
  0
LINE
  5
790
330
1F
100
AcDbEntity
  8
0
100
AcDbLine
 10
19.7722770189222
 20
17.33762023679042
 30
-0.5
 11
19.9597770189222
 21
17.33762023679042
 31
-0.5
  0
LINE
  5
791
330
1F
100
AcDbEntity
  8
0
100
AcDbLine
 10
19.18750161513776
 20
16.49999999999999
 30
-0.5
 11
19.09375161513776
 21
16.66237976320958
 31
-0.5
  0
LINE
  5
792
330
1F
100
AcDbEntity
  8
0
100
AcDbLine
 10
19.33926431702997
 20
16.08762023679041
 30
-0.5
 11
19.52676431702997
 21
16.08762023679041
 31
-0.5
  0
LINE
  5
793
330
1F
100
AcDbEntity
  8
0
100
AcDbLine
 10
21.69182782649107
 20
15.83762023679041
 30
-0.5
 11
21.78557782649106
 21
15.99999999999999
 31
-0.5
  0
LINE
  5
794
330
1F
100
AcDbEntity
  8
0
100
AcDbLine
 10
21.41057782649107
 20
22.0
 30
-0.5
 11
21.50432782649106
 21
21.8376202367904
 31
-0.5
  0
LINE
  5
795
330
1F
100
AcDbEntity
  8
0
100
AcDbLine
 10
19.09375161513776
 20
20.16237976320958
 30
-0.5
 11
18.90625161513776
 21
20.16237976320958
 31
-0.5
  0
LINE
  5
796
330
1F
100
AcDbEntity
  8
0
100
AcDbLine
 10
19.9597770189222
 20
21.33762023679041
 30
-0.5
 11
20.0535270189222
 21
21.5
 31
-0.5
  0
LINE
  5
797
330
1F
100
AcDbEntity
  8
0
100
AcDbLine
 10
19.52676431702997
 20
21.41237976320958
 30
-0.5
 11
19.33926431702997
 21
21.41237976320958
 31
-0.5
  0
LINE
  5
798
330
1F
100
AcDbEntity
  8
0
100
AcDbLine
 10
21.07131512459885
 20
18.58762023679041
 30
-0.5
 11
21.25881512459885
 21
18.58762023679041
 31
-0.5
  0
LINE
  5
799
330
1F
100
AcDbEntity
  8
0
100
AcDbLine
 10
21.93734052838329
 20
20.41237976320958
 30
-0.5
 11
21.84359052838329
 21
20.25
 31
-0.5
  0
LINE
  5
800
330
1F
100
AcDbEntity
  8
0
100
AcDbLine
 10
21.84359052838329
 20
20.25
 30
-0.5
 11
21.93734052838329
 21
20.08762023679041
 31
-0.5
  0
LINE
  5
801
330
1F
100
AcDbEntity
  8
0
100
AcDbLine
 10
20.0535270189222
 20
20.0
 30
-0.5
 11
19.9597770189222
 21
20.16237976320958
 31
-0.5
  0
LINE
  5
802
330
1F
100
AcDbEntity
  8
0
100
AcDbLine
 10
21.93734052838329
 20
20.08762023679041
 30
-0.5
 11
22.12484052838329
 21
20.08762023679041
 31
-0.5
  0
LINE
  5
803
330
1F
100
AcDbEntity
  8
0
100
AcDbLine
 10
18.81250161513776
 20
16.49999999999999
 30
-0.5
 11
18.90625161513776
 21
16.33762023679041
 31
-0.5
  0
LINE
  5
804
330
1F
100
AcDbEntity
  8
0
100
AcDbLine
 10
20.63830242270664
 20
16.83762023679041
 30
-0.5
 11
20.82580242270664
 21
16.83762023679041
 31
-0.5
  0
LINE
  5
805
330
1F
100
AcDbEntity
  8
0
100
AcDbLine
 10
20.20528972081441
 20
21.41237976320958
 30
-0.5
 11
20.11153972081441
 21
21.25
 31
-0.5
  0
LINE
  5
806
330
1F
100
AcDbEntity
  8
0
100
AcDbLine
 10
20.91955242270664
 20
17.49999999999999
 30
-0.5
 11
20.82580242270664
 21
17.66237976320958
 31
-0.5
  0
LINE
  5
807
330
1F
100
AcDbEntity
  8
0
100
AcDbLine
 10
20.48653972081441
 20
16.74999999999999
 30
-0.5
 11
20.39278972081441
 21
16.91237976320957
 31
-0.5
  0
LINE
  5
808
330
1F
100
AcDbEntity
  8
0
100
AcDbLine
 10
20.91955242270664
 20
19.5
 30
-0.5
 11
20.82580242270664
 21
19.66237976320957
 31
-0.5
  0
LINE
  5
809
330
1F
100
AcDbEntity
  8
0
100
AcDbLine
 10
21.07131512459885
 20
18.08762023679041
 30
-0.5
 11
21.25881512459885
 21
18.08762023679041
 31
-0.5
  0
LINE
  5
810
330
1F
100
AcDbEntity
  8
0
100
AcDbLine
 10
19.6785270189222
 20
22.0
 30
-0.5
 11
19.7722770189222
 21
21.8376202367904
 31
-0.5
  0
LINE
  5
811
330
1F
100
AcDbEntity
  8
0
100
AcDbLine
 10
19.9597770189222
 20
18.66237976320957
 30
-0.5
 11
19.7722770189222
 21
18.66237976320957
 31
-0.5
  0
LINE
  5
812
330
1F
100
AcDbEntity
  8
0
100
AcDbLine
 10
20.82580242270664
 20
20.16237976320958
 30
-0.5
 11
20.63830242270664
 21
20.16237976320958
 31
-0.5
  0
LINE
  5
813
330
1F
100
AcDbEntity
  8
0
100
AcDbLine
 10
19.7722770189222
 20
21.66237976320957
 30
-0.5
 11
19.6785270189222
 21
21.5
 31
-0.5
  0
LINE
  5
814
330
1F
100
AcDbEntity
  8
0
100
AcDbLine
 10
19.7722770189222
 20
20.16237976320958
 30
-0.5
 11
19.6785270189222
 21
20.0
 31
-0.5
  0
LINE
  5
815
330
1F
100
AcDbEntity
  8
0
100
AcDbLine
 10
21.69182782649107
 20
21.8376202367904
 30
-0.5
 11
21.78557782649106
 21
22.0
 31
-0.5
  0
LINE
  5
816
330
1F
100
AcDbEntity
  8
0
100
AcDbLine
 10
19.33926431702997
 20
18.91237976320957
 30
-0.5
 11
19.24551431702997
 21
18.75
 31
-0.5
  0
LINE
  5
817
330
1F
100
AcDbEntity
  8
0
100
AcDbLine
 10
21.78557782649106
 20
22.0
 30
-0.5
 11
21.69182782649107
 21
22.16237976320957
 31
-0.5
  0
LINE
  5
818
330
1F
100
AcDbEntity
  8
0
100
AcDbLine
 10
18.90625161513776
 20
16.16237976320957
 30
-0.5
 11
18.81250161513776
 21
15.99999999999999
 31
-0.5
  0
LINE
  5
819
330
1F
100
AcDbEntity
  8
0
100
AcDbLine
 10
20.63830242270664
 20
19.16237976320957
 30
-0.5
 11
20.54455242270664
 21
19.0
 31
-0.5
  0
LINE
  5
820
330
1F
100
AcDbEntity
  8
0
100
AcDbLine
 10
18.81250161513776
 20
19.5
 30
-0.5
 11
18.90625161513776
 21
19.33762023679041
 31
-0.5
  0
LINE
  5
821
330
1F
100
AcDbEntity
  8
0
100
AcDbLine
 10
21.50432782649106
 20
17.33762023679042
 30
-0.5
 11
21.69182782649107
 21
17.33762023679042
 31
-0.5
  0
LINE
  5
822
330
1F
100
AcDbEntity
  8
0
100
AcDbLine
 10
19.09375161513776
 20
18.66237976320957
 30
-0.5
 11
18.90625161513776
 21
18.66237976320957
 31
-0.5
  0
LINE
  5
823
330
1F
100
AcDbEntity
  8
0
100
AcDbLine
 10
20.63830242270664
 20
19.66237976320957
 30
-0.5
 11
20.54455242270664
 21
19.5
 31
-0.5
  0
LINE
  5
824
330
1F
100
AcDbEntity
  8
0
100
AcDbLine
 10
19.7722770189222
 20
19.16237976320957
 30
-0.5
 11
19.6785270189222
 21
19.0
 31
-0.5
  0
LINE
  5
825
330
1F
100
AcDbEntity
  8
0
100
AcDbLine
 10
20.0535270189222
 20
18.0
 30
-0.5
 11
19.9597770189222
 21
18.16237976320957
 31
-0.5
  0
LINE
  5
826
330
1F
100
AcDbEntity
  8
0
100
AcDbLine
 10
20.63830242270664
 20
15.83762023679041
 30
-0.5
 11
20.82580242270664
 21
15.83762023679041
 31
-0.5
  0
LINE
  5
827
330
1F
100
AcDbEntity
  8
0
100
AcDbLine
 10
21.35256512459885
 20
18.25
 30
-0.5
 11
21.25881512459885
 21
18.41237976320957
 31
-0.5
  0
LINE
  5
828
330
1F
100
AcDbEntity
  8
0
100
AcDbLine
 10
21.69182782649107
 20
17.66237976320958
 30
-0.5
 11
21.50432782649106
 21
17.66237976320958
 31
-0.5
  0
LINE
  5
829
330
1F
100
AcDbEntity
  8
0
100
AcDbLine
 10
21.50432782649106
 20
18.16237976320957
 30
-0.5
 11
21.41057782649107
 21
18.0
 31
-0.5
  0
LINE
  5
830
330
1F
100
AcDbEntity
  8
0
100
AcDbLine
 10
19.7722770189222
 20
16.66237976320958
 30
-0.5
 11
19.6785270189222
 21
16.49999999999999
 31
-0.5
  0
LINE
  5
831
330
1F
100
AcDbEntity
  8
0
100
AcDbLine
 10
20.39278972081441
 20
18.08762023679041
 30
-0.5
 11
20.48653972081441
 21
18.25
 31
-0.5
  0
LINE
  5
832
330
1F
100
AcDbEntity
  8
0
100
AcDbLine
 10
21.07131512459885
 20
19.58762023679041
 30
-0.5
 11
21.25881512459885
 21
19.58762023679041
 31
-0.5
  0
LINE
  5
833
330
1F
100
AcDbEntity
  8
0
100
AcDbLine
 10
19.9597770189222
 20
19.16237976320957
 30
-0.5
 11
19.7722770189222
 21
19.16237976320957
 31
-0.5
  0
LINE
  5
834
330
1F
100
AcDbEntity
  8
0
100
AcDbLine
 10
19.52676431702997
 20
18.41237976320957
 30
-0.5
 11
19.33926431702997
 21
18.41237976320957
 31
-0.5
  0
LINE
  5
835
330
1F
100
AcDbEntity
  8
0
100
AcDbLine
 10
21.35256512459885
 20
16.74999999999999
 30
-0.5
 11
21.25881512459885
 21
16.91237976320957
 31
-0.5
  0
LINE
  5
836
330
1F
100
AcDbEntity
  8
0
100
AcDbLine
 10
21.25881512459885
 20
16.91237976320957
 30
-0.5
 11
21.07131512459885
 21
16.91237976320957
 31
-0.5
  0
LINE
  5
837
330
1F
100
AcDbEntity
  8
0
100
AcDbLine
 10
18.90625161513776
 20
17.16237976320957
 30
-0.5
 11
18.81250161513776
 21
17.0
 31
-0.5
  0
LINE
  5
838
330
1F
100
AcDbEntity
  8
0
100
AcDbLine
 10
21.93734052838329
 20
17.08762023679041
 30
-0.5
 11
22.12484052838329
 21
17.08762023679041
 31
-0.5
  0
LINE
  5
839
330
1F
100
AcDbEntity
  8
0
100
AcDbLine
 10
19.52676431702997
 20
20.58762023679042
 30
-0.5
 11
19.62051431702997
 21
20.75
 31
-0.5
  0
LINE
  5
840
330
1F
100
AcDbEntity
  8
0
100
AcDbLine
 10
22.12484052838329
 20
17.08762023679041
 30
-0.5
 11
22.21859052838329
 21
17.24999999999999
 31
-0.5
  0
LINE
  5
841
330
1F
100
AcDbEntity
  8
0
100
AcDbLine
 10
19.62051431702997
 20
17.24999999999999
 30
-0.5
 11
19.52676431702997
 21
17.41237976320958
 31
-0.5
  0
LINE
  5
842
330
1F
100
AcDbEntity
  8
0
100
AcDbLine
 10
22.21859052838329
 20
17.24999999999999
 30
-0.5
 11
22.12484052838329
 21
17.41237976320958
 31
-0.5
  0
LINE
  5
843
330
1F
100
AcDbEntity
  8
0
100
AcDbLine
 10
19.6785270189222
 20
17.49999999999999
 30
-0.5
 11
19.7722770189222
 21
17.33762023679042
 31
-0.5
  0
LINE
  5
844
330
1F
100
AcDbEntity
  8
0
100
AcDbLine
 10
22.12484052838329
 20
17.41237976320958
 30
-0.5
 11
21.93734052838329
 21
17.41237976320958
 31
-0.5
  0
LINE
  5
845
330
1F
100
AcDbEntity
  8
0
100
AcDbLine
 10
19.9597770189222
 20
20.16237976320958
 30
-0.5
 11
19.7722770189222
 21
20.16237976320958
 31
-0.5
  0
LINE
  5
846
330
1F
100
AcDbEntity
  8
0
100
AcDbLine
 10
20.63830242270664
 20
16.16237976320957
 30
-0.5
 11
20.54455242270664
 21
15.99999999999999
 31
-0.5
  0
LINE
  5
847
330
1F
100
AcDbEntity
  8
0
100
AcDbLine
 10
20.39278972081441
 20
19.08762023679041
 30
-0.5
 11
20.48653972081441
 21
19.25
 31
-0.5
  0
LINE
  5
848
330
1F
100
AcDbEntity
  8
0
100
AcDbLine
 10
21.93734052838329
 20
17.91237976320957
 30
-0.5
 11
21.84359052838329
 21
17.75
 31
-0.5
  0
LINE
  5
849
330
1F
100
AcDbEntity
  8
0
100
AcDbLine
 10
19.24551431702997
 20
20.75
 30
-0.5
 11
19.33926431702997
 21
20.58762023679042
 31
-0.5
  0
LINE
  5
850
330
1F
100
AcDbEntity
  8
0
100
AcDbLine
 10
18.81250161513776
 20
20.0
 30
-0.5
 11
18.90625161513776
 21
19.83762023679041
 31
-0.5
  0
LINE
  5
851
330
1F
100
AcDbEntity
  8
0
100
AcDbLine
 10
21.84359052838329
 20
17.75
 30
-0.5
 11
21.93734052838329
 21
17.58762023679041
 31
-0.5
  0
LINE
  5
852
330
1F
100
AcDbEntity
  8
0
100
AcDbLine
 10
20.91955242270664
 20
15.99999999999999
 30
-0.5
 11
20.82580242270664
 21
16.16237976320957
 31
-0.5
  0
LINE
  5
853
330
1F
100
AcDbEntity
  8
0
100
AcDbLine
 10
21.07131512459885
 20
17.08762023679041
 30
-0.5
 11
21.25881512459885
 21
17.08762023679041
 31
-0.5
  0
LINE
  5
854
330
1F
100
AcDbEntity
  8
0
100
AcDbLine
 10
19.18750161513776
 20
17.49999999999999
 30
-0.5
 11
19.09375161513776
 21
17.66237976320958
 31
-0.5
  0
LINE
  5
855
330
1F
100
AcDbEntity
  8
0
100
AcDbLine
 10
19.7722770189222
 20
18.16237976320957
 30
-0.5
 11
19.6785270189222
 21
18.0
 31
-0.5
  0
LINE
  5
856
330
1F
100
AcDbEntity
  8
0
100
AcDbLine
 10
21.41057782649107
 20
16.49999999999999
 30
-0.5
 11
21.50432782649106
 21
16.33762023679041
 31
-0.5
  0
LINE
  5
857
330
1F
100
AcDbEntity
  8
0
100
AcDbLine
 10
21.84359052838329
 20
16.74999999999999
 30
-0.5
 11
21.93734052838329
 21
16.58762023679042
 31
-0.5
  0
LINE
  5
858
330
1F
100
AcDbEntity
  8
0
100
AcDbLine
 10
21.35256512459885
 20
19.25
 30
-0.5
 11
21.25881512459885
 21
19.41237976320957
 31
-0.5
  0
LINE
  5
859
330
1F
100
AcDbEntity
  8
0
100
AcDbLine
 10
21.07131512459885
 20
16.41237976320957
 30
-0.5
 11
20.97756512459885
 21
16.25
 31
-0.5
  0
LINE
  5
860
330
1F
100
AcDbEntity
  8
0
100
AcDbLine
 10
20.54455242270664
 20
17.0
 30
-0.5
 11
20.63830242270664
 21
16.83762023679041
 31
-0.5
  0
LINE
  5
861
330
1F
100
AcDbEntity
  8
0
100
AcDbLine
 10
20.11153972081441
 20
18.25
 30
-0.5
 11
20.20528972081441
 21
18.08762023679041
 31
-0.5
  0
LINE
  5
862
330
1F
100
AcDbEntity
  8
0
100
AcDbLine
 10
21.50432782649106
 20
19.66237976320957
 30
-0.5
 11
21.41057782649107
 21
19.5
 31
-0.5
  0
LINE
  5
863
330
1F
100
AcDbEntity
  8
0
100
AcDbLine
 10
20.48653972081441
 20
20.75
 30
-0.5
 11
20.39278972081441
 21
20.91237976320957
 31
-0.5
  0
LINE
  5
864
330
1F
100
AcDbEntity
  8
0
100
AcDbLine
 10
18.90625161513776
 20
16.83762023679041
 30
-0.5
 11
19.09375161513776
 21
16.83762023679041
 31
-0.5
  0
LINE
  5
865
330
1F
100
AcDbEntity
  8
0
100
AcDbLine
 10
21.25881512459885
 20
19.58762023679041
 30
-0.5
 11
21.35256512459885
 21
19.75
 31
-0.5
  0
LINE
  5
866
330
1F
100
AcDbEntity
  8
0
100
AcDbLine
 10
20.39278972081441
 20
19.91237976320957
 30
-0.5
 11
20.20528972081441
 21
19.91237976320957
 31
-0.5
  0
LINE
  5
867
330
1F
100
AcDbEntity
  8
0
100
AcDbLine
 10
20.39278972081441
 20
19.58762023679041
 30
-0.5
 11
20.48653972081441
 21
19.75
 31
-0.5
  0
LINE
  5
868
330
1F
100
AcDbEntity
  8
0
100
AcDbLine
 10
19.7722770189222
 20
21.16237976320958
 30
-0.5
 11
19.6785270189222
 21
21.0
 31
-0.5
  0
LINE
  5
869
330
1F
100
AcDbEntity
  8
0
100
AcDbLine
 10
21.25881512459885
 20
16.08762023679041
 30
-0.5
 11
21.35256512459885
 21
16.25
 31
-0.5
  0
LINE
  5
870
330
1F
100
AcDbEntity
  8
0
100
AcDbLine
 10
21.07131512459885
 20
17.58762023679041
 30
-0.5
 11
21.25881512459885
 21
17.58762023679041
 31
-0.5
  0
LINE
  5
871
330
1F
100
AcDbEntity
  8
0
100
AcDbLine
 10
21.07131512459885
 20
21.41237976320958
 30
-0.5
 11
20.97756512459885
 21
21.25
 31
-0.5
  0
LINE
  5
872
330
1F
100
AcDbEntity
  8
0
100
AcDbLine
 10
21.69182782649107
 20
18.33762023679041
 30
-0.5
 11
21.78557782649106
 21
18.5
 31
-0.5
  0
LINE
  5
873
330
1F
100
AcDbEntity
  8
0
100
AcDbLine
 10
20.48653972081441
 20
18.25
 30
-0.5
 11
20.39278972081441
 21
18.41237976320957
 31
-0.5
  0
LINE
  5
874
330
1F
100
AcDbEntity
  8
0
100
AcDbLine
 10
19.52676431702997
 20
19.58762023679041
 30
-0.5
 11
19.62051431702997
 21
19.75
 31
-0.5
  0
LINE
  5
875
330
1F
100
AcDbEntity
  8
0
100
AcDbLine
 10
20.82580242270664
 20
22.16237976320957
 30
-0.5
 11
20.63830242270664
 21
22.16237976320957
 31
-0.5
  0
LINE
  5
876
330
1F
100
AcDbEntity
  8
0
100
AcDbLine
 10
20.63830242270664
 20
16.33762023679041
 30
-0.5
 11
20.82580242270664
 21
16.33762023679041
 31
-0.5
  0
LINE
  5
877
330
1F
100
AcDbEntity
  8
0
100
AcDbLine
 10
21.78557782649106
 20
18.0
 30
-0.5
 11
21.69182782649107
 21
18.16237976320957
 31
-0.5
  0
LINE
  5
878
330
1F
100
AcDbEntity
  8
0
100
AcDbLine
 10
19.62051431702997
 20
21.25
 30
-0.5
 11
19.52676431702997
 21
21.41237976320958
 31
-0.5
  0
LINE
  5
879
330
1F
100
AcDbEntity
  8
0
100
AcDbLine
 10
21.69182782649107
 20
18.16237976320957
 30
-0.5
 11
21.50432782649106
 21
18.16237976320957
 31
-0.5
  0
LINE
  5
880
330
1F
100
AcDbEntity
  8
0
100
AcDbLine
 10
21.69182782649107
 20
19.16237976320957
 30
-0.5
 11
21.50432782649106
 21
19.16237976320957
 31
-0.5
  0
LINE
  5
881
330
1F
100
AcDbEntity
  8
0
100
AcDbLine
 10
20.11153972081441
 20
19.25
 30
-0.5
 11
20.20528972081441
 21
19.08762023679041
 31
-0.5
  0
LINE
  5
882
330
1F
100
AcDbEntity
  8
0
100
AcDbLine
 10
21.69182782649107
 20
18.66237976320957
 30
-0.5
 11
21.50432782649106
 21
18.66237976320957
 31
-0.5
  0
LINE
  5
883
330
1F
100
AcDbEntity
  8
0
100
AcDbLine
 10
19.09375161513776
 20
19.66237976320957
 30
-0.5
 11
18.90625161513776
 21
19.66237976320957
 31
-0.5
  0
LINE
  5
884
330
1F
100
AcDbEntity
  8
0
100
AcDbLine
 10
20.48653972081441
 20
17.24999999999999
 30
-0.5
 11
20.39278972081441
 21
17.41237976320958
 31
-0.5
  0
LINE
  5
885
330
1F
100
AcDbEntity
  8
0
100
AcDbLine
 10
19.33926431702997
 20
17.58762023679041
 30
-0.5
 11
19.52676431702997
 21
17.58762023679041
 31
-0.5
  0
LINE
  5
886
330
1F
100
AcDbEntity
  8
0
100
AcDbLine
 10
18.37948891324553
 20
21.25
 30
-0.5
 11
18.47323891324553
 21
21.08762023679041
 31
-0.5
  0
LINE
  5
887
330
1F
100
AcDbEntity
  8
0
100
AcDbLine
 10
19.62051431702997
 20
19.75
 30
-0.5
 11
19.52676431702997
 21
19.91237976320957
 31
-0.5
  0
LINE
  5
888
330
1F
100
AcDbEntity
  8
0
100
AcDbLine
 10
20.20528972081441
 20
18.91237976320957
 30
-0.5
 11
20.11153972081441
 21
18.75
 31
-0.5
  0
LINE
  5
889
330
1F
100
AcDbEntity
  8
0
100
AcDbLine
 10
21.50432782649106
 20
15.83762023679041
 30
-0.5
 11
21.69182782649107
 21
15.83762023679041
 31
-0.5
  0
LINE
  5
890
330
1F
100
AcDbEntity
  8
0
100
AcDbLine
 10
19.33926431702997
 20
19.08762023679041
 30
-0.5
 11
19.52676431702997
 21
19.08762023679041
 31
-0.5
  0
LINE
  5
891
330
1F
100
AcDbEntity
  8
0
100
AcDbLine
 10
21.50432782649106
 20
19.83762023679041
 30
-0.5
 11
21.69182782649107
 21
19.83762023679041
 31
-0.5
  0
LINE
  5
892
330
1F
100
AcDbEntity
  8
0
100
AcDbLine
 10
19.09375161513776
 20
21.66237976320957
 30
-0.5
 11
18.90625161513776
 21
21.66237976320957
 31
-0.5
  0
LINE
  5
893
330
1F
100
AcDbEntity
  8
0
100
AcDbLine
 10
21.07131512459885
 20
16.08762023679041
 30
-0.5
 11
21.25881512459885
 21
16.08762023679041
 31
-0.5
  0
LINE
  5
894
330
1F
100
AcDbEntity
  8
0
100
AcDbLine
 10
19.7722770189222
 20
17.83762023679041
 30
-0.5
 11
19.9597770189222
 21
17.83762023679041
 31
-0.5
  0
LINE
  5
895
330
1F
100
AcDbEntity
  8
0
100
AcDbLine
 10
21.69182782649107
 20
19.83762023679041
 30
-0.5
 11
21.78557782649106
 21
20.0
 31
-0.5
  0
LINE
  5
896
330
1F
100
AcDbEntity
  8
0
100
AcDbLine
 10
19.9597770189222
 20
17.83762023679041
 30
-0.5
 11
20.0535270189222
 21
18.0
 31
-0.5
  0
LINE
  5
897
330
1F
100
AcDbEntity
  8
0
100
AcDbLine
 10
21.07131512459885
 20
20.58762023679042
 30
-0.5
 11
21.25881512459885
 21
20.58762023679042
 31
-0.5
  0
LINE
  5
898
330
1F
100
AcDbEntity
  8
0
100
AcDbLine
 10
19.09375161513776
 20
18.16237976320957
 30
-0.5
 11
18.90625161513776
 21
18.16237976320957
 31
-0.5
  0
LINE
  5
899
330
1F
100
AcDbEntity
  8
0
100
AcDbLine
 10
20.20528972081441
 20
16.91237976320957
 30
-0.5
 11
20.11153972081441
 21
16.74999999999999
 31
-0.5
  0
LINE
  5
900
330
1F
100
AcDbEntity
  8
0
100
AcDbLine
 10
19.9597770189222
 20
16.83762023679041
 30
-0.5
 11
20.0535270189222
 21
17.0
 31
-0.5
  0
LINE
  5
901
330
1F
100
AcDbEntity
  8
0
100
AcDbLine
 10
21.25881512459885
 20
19.41237976320957
 30
-0.5
 11
21.07131512459885
 21
19.41237976320957
 31
-0.5
  0
LINE
  5
902
330
1F
100
AcDbEntity
  8
0
100
AcDbLine
 10
21.07131512459885
 20
19.08762023679041
 30
-0.5
 11
21.25881512459885
 21
19.08762023679041
 31
-0.5
  0
LINE
  5
903
330
1F
100
AcDbEntity
  8
0
100
AcDbLine
 10
21.69182782649107
 20
22.16237976320957
 30
-0.5
 11
21.50432782649106
 21
22.16237976320957
 31
-0.5
  0
LINE
  5
904
330
1F
100
AcDbEntity
  8
0
100
AcDbLine
 10
19.09375161513776
 20
17.16237976320957
 30
-0.5
 11
18.90625161513776
 21
17.16237976320957
 31
-0.5
  0
LINE
  5
905
330
1F
100
AcDbEntity
  8
0
100
AcDbLine
 10
22.12484052838329
 20
21.91237976320957
 30
-0.5
 11
21.93734052838329
 21
21.91237976320957
 31
-0.5
  0
LINE
  5
906
330
1F
100
AcDbEntity
  8
0
100
AcDbLine
 10
19.7722770189222
 20
17.16237976320957
 30
-0.5
 11
19.6785270189222
 21
17.0
 31
-0.5
  0
LINE
  5
907
330
1F
100
AcDbEntity
  8
0
100
AcDbLine
 10
19.62051431702997
 20
19.25
 30
-0.5
 11
19.52676431702997
 21
19.41237976320957
 31
-0.5
  0
LINE
  5
908
330
1F
100
AcDbEntity
  8
0
100
AcDbLine
 10
21.84359052838329
 20
18.75
 30
-0.5
 11
21.93734052838329
 21
18.58762023679041
 31
-0.5
  0
LINE
  5
909
330
1F
100
AcDbEntity
  8
0
100
AcDbLine
 10
20.11153972081441
 20
17.24999999999999
 30
-0.5
 11
20.20528972081441
 21
17.08762023679041
 31
-0.5
  0
LINE
  5
910
330
1F
100
AcDbEntity
  8
0
100
AcDbLine
 10
21.07131512459885
 20
20.91237976320957
 30
-0.5
 11
20.97756512459885
 21
20.75
 31
-0.5
  0
LINE
  5
911
330
1F
100
AcDbEntity
  8
0
100
AcDbLine
 10
21.25881512459885
 20
17.41237976320958
 30
-0.5
 11
21.07131512459885
 21
17.41237976320958
 31
-0.5
  0
LINE
  5
912
330
1F
100
AcDbEntity
  8
0
100
AcDbLine
 10
19.52676431702997
 20
16.58762023679042
 30
-0.5
 11
19.62051431702997
 21
16.74999999999999
 31
-0.5
  0
LINE
  5
913
330
1F
100
AcDbEntity
  8
0
100
AcDbLine
 10
21.69182782649107
 20
18.83762023679041
 30
-0.5
 11
21.78557782649106
 21
19.0
 31
-0.5
  0
LINE
  5
914
330
1F
100
AcDbEntity
  8
0
100
AcDbLine
 10
19.24551431702997
 20
19.75
 30
-0.5
 11
19.33926431702997
 21
19.58762023679041
 31
-0.5
  0
LINE
  5
915
330
1F
100
AcDbEntity
  8
0
100
AcDbLine
 10
21.50432782649106
 20
16.66237976320958
 30
-0.5
 11
21.41057782649107
 21
16.49999999999999
 31
-0.5
  0
LINE
  5
916
330
1F
100
AcDbEntity
  8
0
100
AcDbLine
 10
21.78557782649106
 20
19.0
 30
-0.5
 11
21.69182782649107
 21
19.16237976320957
 31
-0.5
  0
LINE
  5
917
330
1F
100
AcDbEntity
  8
0
100
AcDbLine
 10
20.48653972081441
 20
18.75
 30
-0.5
 11
20.39278972081441
 21
18.91237976320957
 31
-0.5
  0
LINE
  5
918
330
1F
100
AcDbEntity
  8
0
100
AcDbLine
 10
21.25881512459885
 20
18.91237976320957
 30
-0.5
 11
21.07131512459885
 21
18.91237976320957
 31
-0.5
  0
LINE
  5
919
330
1F
100
AcDbEntity
  8
0
100
AcDbLine
 10
19.09375161513776
 20
17.33762023679042
 30
-0.5
 11
19.18750161513776
 21
17.49999999999999
 31
-0.5
  0
LINE
  5
920
330
1F
100
AcDbEntity
  8
0
100
AcDbLine
 10
20.54455242270664
 20
19.0
 30
-0.5
 11
20.63830242270664
 21
18.83762023679041
 31
-0.5
  0
LINE
  5
921
330
1F
100
AcDbEntity
  8
0
100
AcDbLine
 10
21.50432782649106
 20
18.83762023679041
 30
-0.5
 11
21.69182782649107
 21
18.83762023679041
 31
-0.5
  0
LINE
  5
922
330
1F
100
AcDbEntity
  8
0
100
AcDbLine
 10
20.63830242270664
 20
20.83762023679041
 30
-0.5
 11
20.82580242270664
 21
20.83762023679041
 31
-0.5
  0
LINE
  5
923
330
1F
100
AcDbEntity
  8
0
100
AcDbLine
 10
21.78557782649106
 20
18.5
 30
-0.5
 11
21.69182782649107
 21
18.66237976320957
 31
-0.5
  0
LINE
  5
924
330
1F
100
AcDbEntity
  8
0
100
AcDbLine
 10
19.52676431702997
 20
17.58762023679041
 30
-0.5
 11
19.62051431702997
 21
17.75
 31
-0.5
  0
LINE
  5
925
330
1F
100
AcDbEntity
  8
0
100
AcDbLine
 10
21.93734052838329
 20
18.41237976320957
 30
-0.5
 11
21.84359052838329
 21
18.25
 31
-0.5
  0
LINE
  5
926
330
1F
100
AcDbEntity
  8
0
100
AcDbLine
 10
20.39278972081441
 20
17.08762023679041
 30
-0.5
 11
20.48653972081441
 21
17.24999999999999
 31
-0.5
  0
LINE
  5
927
330
1F
100
AcDbEntity
  8
0
100
AcDbLine
 10
21.84359052838329
 20
18.25
 30
-0.5
 11
21.93734052838329
 21
18.08762023679041
 31
-0.5
  0
LINE
  5
928
330
1F
100
AcDbEntity
  8
0
100
AcDbLine
 10
19.33926431702997
 20
20.91237976320957
 30
-0.5
 11
19.24551431702997
 21
20.75
 31
-0.5
  0
LINE
  5
929
330
1F
100
AcDbEntity
  8
0
100
AcDbLine
 10
21.93734052838329
 20
18.08762023679041
 30
-0.5
 11
22.12484052838329
 21
18.08762023679041
 31
-0.5
  0
LINE
  5
930
330
1F
100
AcDbEntity
  8
0
100
AcDbLine
 10
19.24551431702997
 20
17.75
 30
-0.5
 11
19.33926431702997
 21
17.58762023679041
 31
-0.5
  0
LINE
  5
931
330
1F
100
AcDbEntity
  8
0
100
AcDbLine
 10
22.12484052838329
 20
18.08762023679041
 30
-0.5
 11
22.21859052838329
 21
18.25
 31
-0.5
  0
LINE
  5
932
330
1F
100
AcDbEntity
  8
0
100
AcDbLine
 10
20.0535270189222
 20
15.99999999999999
 30
-0.5
 11
19.9597770189222
 21
16.16237976320957
 31
-0.5
  0
LINE
  5
933
330
1F
100
AcDbEntity
  8
0
100
AcDbLine
 10
21.41057782649107
 20
19.5
 30
-0.5
 11
21.50432782649106
 21
19.33762023679041
 31
-0.5
  0
LINE
  5
934
330
1F
100
AcDbEntity
  8
0
100
AcDbLine
 10
19.9597770189222
 20
16.16237976320957
 30
-0.5
 11
19.7722770189222
 21
16.16237976320957
 31
-0.5
  0
LINE
  5
935
330
1F
100
AcDbEntity
  8
0
100
AcDbLine
 10
21.25881512459885
 20
20.41237976320958
 30
-0.5
 11
21.07131512459885
 21
20.41237976320958
 31
-0.5
  0
LINE
  5
936
330
1F
100
AcDbEntity
  8
0
100
AcDbLine
 10
19.33926431702997
 20
19.91237976320957
 30
-0.5
 11
19.24551431702997
 21
19.75
 31
-0.5
  0
LINE
  5
937
330
1F
100
AcDbEntity
  8
0
100
AcDbLine
 10
22.21859052838329
 20
18.25
 30
-0.5
 11
22.12484052838329
 21
18.41237976320957
 31
-0.5
  0
LINE
  5
938
330
1F
100
AcDbEntity
  8
0
100
AcDbLine
 10
19.52676431702997
 20
21.08762023679041
 30
-0.5
 11
19.62051431702997
 21
21.25
 31
-0.5
  0
LINE
  5
939
330
1F
100
AcDbEntity
  8
0
100
AcDbLine
 10
20.63830242270664
 20
18.66237976320957
 30
-0.5
 11
20.54455242270664
 21
18.5
 31
-0.5
  0
LINE
  5
940
330
1F
100
AcDbEntity
  8
0
100
AcDbLine
 10
20.91955242270664
 20
16.49999999999999
 30
-0.5
 11
20.82580242270664
 21
16.66237976320958
 31
-0.5
  0
LINE
  5
941
330
1F
100
AcDbEntity
  8
0
100
AcDbLine
 10
20.63830242270664
 20
19.83762023679041
 30
-0.5
 11
20.82580242270664
 21
19.83762023679041
 31
-0.5
  0
LINE
  5
942
330
1F
100
AcDbEntity
  8
0
100
AcDbLine
 10
20.39278972081441
 20
20.41237976320958
 30
-0.5
 11
20.20528972081441
 21
20.41237976320958
 31
-0.5
  0
LINE
  5
943
330
1F
100
AcDbEntity
  8
0
100
AcDbLine
 10
20.97756512459885
 20
21.25
 30
-0.5
 11
21.07131512459885
 21
21.08762023679041
 31
-0.5
  0
LINE
  5
944
330
1F
100
AcDbEntity
  8
0
100
AcDbLine
 10
20.54455242270664
 20
16.49999999999999
 30
-0.5
 11
20.63830242270664
 21
16.33762023679041
 31
-0.5
  0
LINE
  5
945
330
1F
100
AcDbEntity
  8
0
100
AcDbLine
 10
21.50432782649106
 20
16.33762023679041
 30
-0.5
 11
21.69182782649107
 21
16.33762023679041
 31
-0.5
  0
LINE
  5
946
330
1F
100
AcDbEntity
  8
0
100
AcDbLine
 10
20.63830242270664
 20
18.33762023679041
 30
-0.5
 11
20.82580242270664
 21
18.33762023679041
 31
-0.5
  0
LINE
  5
947
330
1F
100
AcDbEntity
  8
0
100
AcDbLine
 10
20.54455242270664
 20
18.0
 30
-0.5
 11
20.63830242270664
 21
17.83762023679041
 31
-0.5
  0
LINE
  5
948
330
1F
100
AcDbEntity
  8
0
100
AcDbLine
 10
19.9597770189222
 20
19.33762023679041
 30
-0.5
 11
20.0535270189222
 21
19.5
 31
-0.5
  0
LINE
  5
949
330
1F
100
AcDbEntity
  8
0
100
AcDbLine
 10
20.11153972081441
 20
20.25
 30
-0.5
 11
20.20528972081441
 21
20.08762023679041
 31
-0.5
  0
LINE
  5
950
330
1F
100
AcDbEntity
  8
0
100
AcDbLine
 10
19.9597770189222
 20
16.66237976320958
 30
-0.5
 11
19.7722770189222
 21
16.66237976320958
 31
-0.5
  0
LINE
  5
951
330
1F
100
AcDbEntity
  8
0
100
AcDbLine
 10
20.97756512459885
 20
21.75
 30
-0.5
 11
21.07131512459885
 21
21.5876202367904
 31
-0.5
  0
LINE
  5
952
330
1F
100
AcDbEntity
  8
0
100
AcDbLine
 10
21.25881512459885
 20
16.41237976320957
 30
-0.5
 11
21.07131512459885
 21
16.41237976320957
 31
-0.5
  0
LINE
  5
953
330
1F
100
AcDbEntity
  8
0
100
AcDbLine
 10
18.90625161513776
 20
17.66237976320958
 30
-0.5
 11
18.81250161513776
 21
17.49999999999999
 31
-0.5
  0
LINE
  5
954
330
1F
100
AcDbEntity
  8
0
100
AcDbLine
 10
20.20528972081441
 20
19.58762023679041
 30
-0.5
 11
20.39278972081441
 21
19.58762023679041
 31
-0.5
  0
LINE
  5
955
330
1F
100
AcDbEntity
  8
0
100
AcDbLine
 10
20.63830242270664
 20
17.16237976320957
 30
-0.5
 11
20.54455242270664
 21
17.0
 31
-0.5
  0
LINE
  5
956
330
1F
100
AcDbEntity
  8
0
100
AcDbLine
 10
20.63830242270664
 20
22.16237976320957
 30
-0.5
 11
20.54455242270664
 21
22.0
 31
-0.5
  0
LINE
  5
957
330
1F
100
AcDbEntity
  8
0
100
AcDbLine
 10
20.82580242270664
 20
21.16237976320958
 30
-0.5
 11
20.63830242270664
 21
21.16237976320958
 31
-0.5
  0
LINE
  5
958
330
1F
100
AcDbEntity
  8
0
100
AcDbLine
 10
21.07131512459885
 20
19.91237976320957
 30
-0.5
 11
20.97756512459885
 21
19.75
 31
-0.5
  0
LINE
  5
959
330
1F
100
AcDbEntity
  8
0
100
AcDbLine
 10
20.11153972081441
 20
20.75
 30
-0.5
 11
20.20528972081441
 21
20.58762023679042
 31
-0.5
  0
LINE
  5
960
330
1F
100
AcDbEntity
  8
0
100
AcDbLine
 10
20.63830242270664
 20
18.83762023679041
 30
-0.5
 11
20.82580242270664
 21
18.83762023679041
 31
-0.5
  0
LINE
  5
961
330
1F
100
AcDbEntity
  8
0
100
AcDbLine
 10
21.35256512459885
 20
18.75
 30
-0.5
 11
21.25881512459885
 21
18.91237976320957
 31
-0.5
  0
LINE
  5
962
330
1F
100
AcDbEntity
  8
0
100
AcDbLine
 10
20.20528972081441
 20
19.91237976320957
 30
-0.5
 11
20.11153972081441
 21
19.75
 31
-0.5
  0
LINE
  5
963
330
1F
100
AcDbEntity
  8
0
100
AcDbLine
 10
20.54455242270664
 20
19.5
 30
-0.5
 11
20.63830242270664
 21
19.33762023679041
 31
-0.5
  0
LINE
  5
964
330
1F
100
AcDbEntity
  8
0
100
AcDbLine
 10
20.63830242270664
 20
17.33762023679042
 30
-0.5
 11
20.82580242270664
 21
17.33762023679042
 31
-0.5
  0
LINE
  5
965
330
1F
100
AcDbEntity
  8
0
100
AcDbLine
 10
20.20528972081441
 20
17.91237976320957
 30
-0.5
 11
20.11153972081441
 21
17.75
 31
-0.5
  0
LINE
  5
966
330
1F
100
AcDbEntity
  8
0
100
AcDbLine
 10
19.9597770189222
 20
21.8376202367904
 30
-0.5
 11
20.0535270189222
 21
22.0
 31
-0.5
  0
LINE
  5
967
330
1F
100
AcDbEntity
  8
0
100
AcDbLine
 10
20.48653972081441
 20
21.75
 30
-0.5
 11
20.39278972081441
 21
21.91237976320957
 31
-0.5
  0
LINE
  5
968
330
1F
100
AcDbEntity
  8
0
100
AcDbLine
 10
20.82580242270664
 20
17.16237976320957
 30
-0.5
 11
20.63830242270664
 21
17.16237976320957
 31
-0.5
  0
LINE
  5
969
330
1F
100
AcDbEntity
  8
0
100
AcDbLine
 10
21.50432782649106
 20
17.66237976320958
 30
-0.5
 11
21.41057782649107
 21
17.49999999999999
 31
-0.5
  0
LINE
  5
970
330
1F
100
AcDbEntity
  8
0
100
AcDbLine
 10
22.12484052838329
 20
16.08762023679041
 30
-0.5
 11
22.21859052838329
 21
16.25
 31
-0.5
  0
LINE
  5
971
330
1F
100
AcDbEntity
  8
0
100
AcDbLine
 10
19.09375161513776
 20
16.83762023679041
 30
-0.5
 11
19.18750161513776
 21
17.0
 31
-0.5
  0
LINE
  5
972
330
1F
100
AcDbEntity
  8
0
100
AcDbLine
 10
22.21859052838329
 20
16.25
 30
-0.5
 11
22.12484052838329
 21
16.41237976320957
 31
-0.5
  0
LINE
  5
973
330
1F
100
AcDbEntity
  8
0
100
AcDbLine
 10
18.81250161513776
 20
17.49999999999999
 30
-0.5
 11
18.90625161513776
 21
17.33762023679042
 31
-0.5
  0
LINE
  5
974
330
1F
100
AcDbEntity
  8
0
100
AcDbLine
 10
22.12484052838329
 20
16.41237976320957
 30
-0.5
 11
21.93734052838329
 21
16.41237976320957
 31
-0.5
  0
LINE
  5
975
330
1F
100
AcDbEntity
  8
0
100
AcDbLine
 10
19.6785270189222
 20
17.0
 30
-0.5
 11
19.7722770189222
 21
16.83762023679041
 31
-0.5
  0
LINE
  5
976
330
1F
100
AcDbEntity
  8
0
100
AcDbLine
 10
19.09375161513776
 20
22.16237976320957
 30
-0.5
 11
18.90625161513776
 21
22.16237976320957
 31
-0.5
  0
LINE
  5
977
330
1F
100
AcDbEntity
  8
0
100
AcDbLine
 10
20.11153972081441
 20
21.75
 30
-0.5
 11
20.20528972081441
 21
21.5876202367904
 31
-0.5
  0
LINE
  5
978
330
1F
100
AcDbEntity
  8
0
100
AcDbLine
 10
21.93734052838329
 20
16.91237976320957
 30
-0.5
 11
21.84359052838329
 21
16.74999999999999
 31
-0.5
  0
LINE
  5
979
330
1F
100
AcDbEntity
  8
0
100
AcDbLine
 10
21.78557782649106
 20
20.5
 30
-0.5
 11
21.69182782649107
 21
20.66237976320957
 31
-0.5
  0
LINE
  5
980
330
1F
100
AcDbEntity
  8
0
100
AcDbLine
 10
18.90625161513776
 20
21.8376202367904
 30
-0.5
 11
19.09375161513776
 21
21.8376202367904
 31
-0.5
  0
LINE
  5
981
330
1F
100
AcDbEntity
  8
0
100
AcDbLine
 10
21.69182782649107
 20
20.66237976320957
 30
-0.5
 11
21.50432782649106
 21
20.66237976320957
 31
-0.5
  0
LINE
  5
982
330
1F
100
AcDbEntity
  8
0
100
AcDbLine
 10
18.90625161513776
 20
18.16237976320957
 30
-0.5
 11
18.81250161513776
 21
18.0
 31
-0.5
  0
LINE
  5
983
330
1F
100
AcDbEntity
  8
0
100
AcDbLine
 10
19.7722770189222
 20
22.16237976320957
 30
-0.5
 11
19.6785270189222
 21
22.0
 31
-0.5
  0
LINE
  5
984
330
1F
100
AcDbEntity
  8
0
100
AcDbLine
 10
21.50432782649106
 20
21.16237976320958
 30
-0.5
 11
21.41057782649107
 21
21.0
 31
-0.5
  0
LINE
  5
985
330
1F
100
AcDbEntity
  8
0
100
AcDbLine
 10
21.93734052838329
 20
19.41237976320957
 30
-0.5
 11
21.84359052838329
 21
19.25
 31
-0.5
  0
LINE
  5
986
330
1F
100
AcDbEntity
  8
0
100
AcDbLine
 10
20.20528972081441
 20
20.58762023679042
 30
-0.5
 11
20.39278972081441
 21
20.58762023679042
 31
-0.5
  0
LINE
  5
987
330
1F
100
AcDbEntity
  8
0
100
AcDbLine
 10
19.52676431702997
 20
20.41237976320958
 30
-0.5
 11
19.33926431702997
 21
20.41237976320958
 31
-0.5
  0
LINE
  5
988
330
1F
100
AcDbEntity
  8
0
100
AcDbLine
 10
21.69182782649107
 20
16.83762023679041
 30
-0.5
 11
21.78557782649106
 21
17.0
 31
-0.5
  0
LINE
  5
989
330
1F
100
AcDbEntity
  8
0
100
AcDbLine
 10
18.90625161513776
 20
21.16237976320958
 30
-0.5
 11
18.81250161513776
 21
21.0
 31
-0.5
  0
LINE
  5
990
330
1F
100
AcDbEntity
  8
0
100
AcDbLine
 10
21.84359052838329
 20
19.25
 30
-0.5
 11
21.93734052838329
 21
19.08762023679041
 31
-0.5
  0
LINE
  5
991
330
1F
100
AcDbEntity
  8
0
100
AcDbLine
 10
18.81250161513776
 20
18.0
 30
-0.5
 11
18.90625161513776
 21
17.83762023679041
 31
-0.5
  0
LINE
  5
992
330
1F
100
AcDbEntity
  8
0
100
AcDbLine
 10
20.20528972081441
 20
17.58762023679041
 30
-0.5
 11
20.39278972081441
 21
17.58762023679041
 31
-0.5
  0
LINE
  5
993
330
1F
100
AcDbEntity
  8
0
100
AcDbLine
 10
18.90625161513776
 20
20.83762023679041
 30
-0.5
 11
19.09375161513776
 21
20.83762023679041
 31
-0.5
  0
LINE
  5
994
330
1F
100
AcDbEntity
  8
0
100
AcDbLine
 10
21.93734052838329
 20
19.08762023679041
 30
-0.5
 11
22.12484052838329
 21
19.08762023679041
 31
-0.5
  0
LINE
  5
995
330
1F
100
AcDbEntity
  8
0
100
AcDbLine
 10
19.09375161513776
 20
16.16237976320957
 30
-0.5
 11
18.90625161513776
 21
16.16237976320957
 31
-0.5
  0
LINE
  5
996
330
1F
100
AcDbEntity
  8
0
100
AcDbLine
 10
22.12484052838329
 20
19.08762023679041
 30
-0.5
 11
22.21859052838329
 21
19.25
 31
-0.5
  0
LINE
  5
997
330
1F
100
AcDbEntity
  8
0
100
AcDbLine
 10
18.90625161513776
 20
20.33762023679042
 30
-0.5
 11
19.09375161513776
 21
20.33762023679042
 31
-0.5
  0
LINE
  5
998
330
1F
100
AcDbEntity
  8
0
100
AcDbLine
 10
22.21859052838329
 20
19.25
 30
-0.5
 11
22.12484052838329
 21
19.41237976320957
 31
-0.5
  0
LINE
  5
999
330
1F
100
AcDbEntity
  8
0
100
AcDbLine
 10
19.18750161513776
 20
20.5
 30
-0.5
 11
19.09375161513776
 21
20.66237976320957
 31
-0.5
  0
LINE
  5
1000
330
1F
100
AcDbEntity
  8
0
100
AcDbLine
 10
19.09375161513776
 20
21.8376202367904
 30
-0.5
 11
19.18750161513776
 21
22.0
 31
-0.5
  0
LINE
  5
1001
330
1F
100
AcDbEntity
  8
0
100
AcDbLine
 10
22.12484052838329
 20
19.41237976320957
 30
-0.5
 11
21.93734052838329
 21
19.41237976320957
 31
-0.5
  0
LINE
  5
1002
330
1F
100
AcDbEntity
  8
0
100
AcDbLine
 10
21.69182782649107
 20
17.16237976320957
 30
-0.5
 11
21.50432782649106
 21
17.16237976320957
 31
-0.5
  0
LINE
  5
1003
330
1F
100
AcDbEntity
  8
0
100
AcDbLine
 10
19.6785270189222
 20
19.0
 30
-0.5
 11
19.7722770189222
 21
18.83762023679041
 31
-0.5
  0
LINE
  5
1004
330
1F
100
AcDbEntity
  8
0
100
AcDbLine
 10
21.07131512459885
 20
17.91237976320957
 30
-0.5
 11
20.97756512459885
 21
17.75
 31
-0.5
  0
LINE
  5
1005
330
1F
100
AcDbEntity
  8
0
100
AcDbLine
 10
19.6785270189222
 20
20.0
 30
-0.5
 11
19.7722770189222
 21
19.83762023679041
 31
-0.5
  0
LINE
  5
1006
330
1F
100
AcDbEntity
  8
0
100
AcDbLine
 10
19.9597770189222
 20
18.83762023679041
 30
-0.5
 11
20.0535270189222
 21
19.0
 31
-0.5
  0
LINE
  5
1007
330
1F
100
AcDbEntity
  8
0
100
AcDbLine
 10
18.75448891324553
 20
21.75
 30
-0.5
 11
18.66073891324553
 21
21.91237976320957
 31
-0.5
  0
LINE
  5
1008
330
1F
100
AcDbEntity
  8
0
100
AcDbLine
 10
20.11153972081441
 20
17.75
 30
-0.5
 11
20.20528972081441
 21
17.58762023679041
 31
-0.5
  0
LINE
  5
1009
330
1F
100
AcDbEntity
  8
0
100
AcDbLine
 10
19.52676431702997
 20
16.91237976320957
 30
-0.5
 11
19.33926431702997
 21
16.91237976320957
 31
-0.5
  0
LINE
  5
1010
330
1F
100
AcDbEntity
  8
0
100
AcDbLine
 10
21.41057782649107
 20
15.99999999999999
 30
-0.5
 11
21.50432782649106
 21
15.83762023679041
 31
-0.5
  0
LINE
  5
1011
330
1F
100
AcDbEntity
  8
0
100
AcDbLine
 10
19.52676431702997
 20
19.91237976320957
 30
-0.5
 11
19.33926431702997
 21
19.91237976320957
 31
-0.5
  0
LINE
  5
1012
330
1F
100
AcDbEntity
  8
0
100
AcDbLine
 10
19.7722770189222
 20
20.83762023679041
 30
-0.5
 11
19.9597770189222
 21
20.83762023679041
 31
-0.5
  0
LINE
  5
1013
330
1F
100
AcDbEntity
  8
0
100
AcDbLine
 10
20.48653972081441
 20
20.25
 30
-0.5
 11
20.39278972081441
 21
20.41237976320958
 31
-0.5
  0
LINE
  5
1014
330
1F
100
AcDbEntity
  8
0
100
AcDbLine
 10
21.93734052838329
 20
19.91237976320957
 30
-0.5
 11
21.84359052838329
 21
19.75
 31
-0.5
  0
LINE
  5
1015
330
1F
100
AcDbEntity
  8
0
100
AcDbLine
 10
19.7722770189222
 20
16.33762023679041
 30
-0.5
 11
19.9597770189222
 21
16.33762023679041
 31
-0.5
  0
LINE
  5
1016
330
1F
100
AcDbEntity
  8
0
100
AcDbLine
 10
21.84359052838329
 20
19.75
 30
-0.5
 11
21.93734052838329
 21
19.58762023679041
 31
-0.5
  0
LINE
  5
1017
330
1F
100
AcDbEntity
  8
0
100
AcDbLine
 10
18.90625161513776
 20
18.83762023679041
 30
-0.5
 11
19.09375161513776
 21
18.83762023679041
 31
-0.5
  0
LINE
  5
1018
330
1F
100
AcDbEntity
  8
0
100
AcDbLine
 10
21.93734052838329
 20
19.58762023679041
 30
-0.5
 11
22.12484052838329
 21
19.58762023679041
 31
-0.5
  0
LINE
  5
1019
330
1F
100
AcDbEntity
  8
0
100
AcDbLine
 10
19.09375161513776
 20
17.66237976320958
 30
-0.5
 11
18.90625161513776
 21
17.66237976320958
 31
-0.5
  0
LINE
  5
1020
330
1F
100
AcDbEntity
  8
0
100
AcDbLine
 10
22.12484052838329
 20
19.58762023679041
 30
-0.5
 11
22.21859052838329
 21
19.75
 31
-0.5
  0
LINE
  5
1021
330
1F
100
AcDbEntity
  8
0
100
AcDbLine
 10
19.18750161513776
 20
18.0
 30
-0.5
 11
19.09375161513776
 21
18.16237976320957
 31
-0.5
  0
LINE
  5
1022
330
1F
100
AcDbEntity
  8
0
100
AcDbLine
 10
22.21859052838329
 20
19.75
 30
-0.5
 11
22.12484052838329
 21
19.91237976320957
 31
-0.5
  0
LINE
  5
1023
330
1F
100
AcDbEntity
  8
0
100
AcDbLine
 10
19.18750161513776
 20
15.99999999999999
 30
-0.5
 11
19.09375161513776
 21
16.16237976320957
 31
-0.5
  0
LINE
  5
1024
330
1F
100
AcDbEntity
  8
0
100
AcDbLine
 10
22.12484052838329
 20
19.91237976320957
 30
-0.5
 11
21.93734052838329
 21
19.91237976320957
 31
-0.5
  0
LINE
  5
1025
330
1F
100
AcDbEntity
  8
0
100
AcDbLine
 10
20.63830242270664
 20
20.16237976320958
 30
-0.5
 11
20.54455242270664
 21
20.0
 31
-0.5
  0
LINE
  5
1026
330
1F
100
AcDbEntity
  8
0
100
AcDbLine
 10
20.48653972081441
 20
19.75
 30
-0.5
 11
20.39278972081441
 21
19.91237976320957
 31
-0.5
  0
LINE
  5
1027
330
1F
100
AcDbEntity
  8
0
100
AcDbLine
 10
20.63830242270664
 20
18.16237976320957
 30
-0.5
 11
20.54455242270664
 21
18.0
 31
-0.5
  0
LINE
  5
1028
330
1F
100
AcDbEntity
  8
0
100
AcDbLine
 10
22.12484052838329
 20
20.08762023679041
 30
-0.5
 11
22.21859052838329
 21
20.25
 31
-0.5
  0
LINE
  5
1029
330
1F
100
AcDbEntity
  8
0
100
AcDbLine
 10
20.91955242270664
 20
18.5
 30
-0.5
 11
20.82580242270664
 21
18.66237976320957
 31
-0.5
  0
LINE
  5
1030
330
1F
100
AcDbEntity
  8
0
100
AcDbLine
 10
21.41057782649107
 20
17.0
 30
-0.5
 11
21.50432782649106
 21
16.83762023679041
 31
-0.5
  0
LINE
  5
1031
330
1F
100
AcDbEntity
  8
0
100
AcDbLine
 10
18.90625161513776
 20
18.66237976320957
 30
-0.5
 11
18.81250161513776
 21
18.5
 31
-0.5
  0
LINE
  5
1032
330
1F
100
AcDbEntity
  8
0
100
AcDbLine
 10
20.20528972081441
 20
21.91237976320957
 30
-0.5
 11
20.11153972081441
 21
21.75
 31
-0.5
  0
LINE
  5
1033
330
1F
100
AcDbEntity
  8
0
100
AcDbLine
 10
18.81250161513776
 20
21.0
 30
-0.5
 11
18.90625161513776
 21
20.83762023679041
 31
-0.5
  0
LINE
  5
1034
330
1F
100
AcDbEntity
  8
0
100
AcDbLine
 10
20.48653972081441
 20
19.25
 30
-0.5
 11
20.39278972081441
 21
19.41237976320957
 31
-0.5
  0
LINE
  5
1035
330
1F
100
AcDbEntity
  8
0
100
AcDbLine
 10
19.33926431702997
 20
19.58762023679041
 30
-0.5
 11
19.52676431702997
 21
19.58762023679041
 31
-0.5
  0
LINE
  5
1036
330
1F
100
AcDbEntity
  8
0
100
AcDbLine
 10
20.82580242270664
 20
16.33762023679041
 30
-0.5
 11
20.91955242270664
 21
16.49999999999999
 31
-0.5
  0
LINE
  5
1037
330
1F
100
AcDbEntity
  8
0
100
AcDbLine
 10
19.24551431702997
 20
18.25
 30
-0.5
 11
19.33926431702997
 21
18.08762023679041
 31
-0.5
  0
LINE
  5
1038
330
1F
100
AcDbEntity
  8
0
100
AcDbLine
 10
20.39278972081441
 20
21.41237976320958
 30
-0.5
 11
20.20528972081441
 21
21.41237976320958
 31
-0.5
  0
LINE
  5
1039
330
1F
100
AcDbEntity
  8
0
100
AcDbLine
 10
19.18750161513776
 20
22.0
 30
-0.5
 11
19.09375161513776
 21
22.16237976320957
 31
-0.5
  0
LINE
  5
1040
330
1F
100
AcDbEntity
  8
0
100
AcDbLine
 10
22.21859052838329
 20
20.25
 30
-0.5
 11
22.12484052838329
 21
20.41237976320958
 31
-0.5
  0
LINE
  5
1041
330
1F
100
AcDbEntity
  8
0
100
AcDbLine
 10
18.90625161513776
 20
18.33762023679041
 30
-0.5
 11
19.09375161513776
 21
18.33762023679041
 31
-0.5
  0
LINE
  5
1042
330
1F
100
AcDbEntity
  8
0
100
AcDbLine
 10
21.25881512459885
 20
20.91237976320957
 30
-0.5
 11
21.07131512459885
 21
20.91237976320957
 31
-0.5
  0
LINE
  5
1043
330
1F
100
AcDbEntity
  8
0
100
AcDbLine
 10
21.93734052838329
 20
20.91237976320957
 30
-0.5
 11
21.84359052838329
 21
20.75
 31
-0.5
  0
LINE
  5
1044
330
1F
100
AcDbEntity
  8
0
100
AcDbLine
 10
20.82580242270664
 20
16.83762023679041
 30
-0.5
 11
20.91955242270664
 21
17.0
 31
-0.5
  0
LINE
  5
1045
330
1F
100
AcDbEntity
  8
0
100
AcDbLine
 10
19.24551431702997
 20
16.25
 30
-0.5
 11
19.33926431702997
 21
16.08762023679041
 31
-0.5
  0
LINE
  5
1046
330
1F
100
AcDbEntity
  8
0
100
AcDbLine
 10
21.41057782649107
 20
21.5
 30
-0.5
 11
21.50432782649106
 21
21.33762023679041
 31
-0.5
  0
LINE
  5
1047
330
1F
100
AcDbEntity
  8
0
100
AcDbLine
 10
18.90625161513776
 20
15.83762023679041
 30
-0.5
 11
19.09375161513776
 21
15.83762023679041
 31
-0.5
  0
LINE
  5
1048
330
1F
100
AcDbEntity
  8
0
100
AcDbLine
 10
20.20528972081441
 20
21.08762023679041
 30
-0.5
 11
20.39278972081441
 21
21.08762023679041
 31
-0.5
  0
LINE
  5
1049
330
1F
100
AcDbEntity
  8
0
100
AcDbLine
 10
19.62051431702997
 20
20.25
 30
-0.5
 11
19.52676431702997
 21
20.41237976320958
 31
-0.5
  0
LINE
  5
1050
330
1F
100
AcDbEntity
  8
0
100
AcDbLine
 10
20.91955242270664
 20
21.0
 30
-0.5
 11
20.82580242270664
 21
21.16237976320958
 31
-0.5
  0
LINE
  5
1051
330
1F
100
AcDbEntity
  8
0
100
AcDbLine
 10
18.81250161513776
 20
17.0
 30
-0.5
 11
18.90625161513776
 21
16.83762023679041
 31
-0.5
  0
LINE
  5
1052
330
1F
100
AcDbEntity
  8
0
100
AcDbLine
 10
21.50432782649106
 20
21.66237976320957
 30
-0.5
 11
21.41057782649107
 21
21.5
 31
-0.5
  0
LINE
  5
1053
330
1F
100
AcDbEntity
  8
0
100
AcDbLine
 10
19.09375161513776
 20
19.16237976320957
 30
-0.5
 11
18.90625161513776
 21
19.16237976320957
 31
-0.5
  0
LINE
  5
1054
330
1F
100
AcDbEntity
  8
0
100
AcDbLine
 10
21.50432782649106
 20
21.33762023679041
 30
-0.5
 11
21.69182782649107
 21
21.33762023679041
 31
-0.5
  0
LINE
  5
1055
330
1F
100
AcDbEntity
  8
0
100
AcDbLine
 10
18.90625161513776
 20
22.16237976320957
 30
-0.5
 11
18.81250161513776
 21
22.0
 31
-0.5
  0
LINE
  5
1056
330
1F
100
AcDbEntity
  8
0
100
AcDbLine
 10
20.54455242270664
 20
21.5
 30
-0.5
 11
20.63830242270664
 21
21.33762023679041
 31
-0.5
  0
LINE
  5
1057
330
1F
100
AcDbEntity
  8
0
100
AcDbLine
 10
19.9597770189222
 20
19.66237976320957
 30
-0.5
 11
19.7722770189222
 21
19.66237976320957
 31
-0.5
  0
LINE
  5
1058
330
1F
100
AcDbEntity
  8
0
100
AcDbLine
 10
20.20528972081441
 20
19.41237976320957
 30
-0.5
 11
20.11153972081441
 21
19.25
 31
-0.5
  0
LINE
  5
1059
330
1F
100
AcDbEntity
  8
0
100
AcDbLine
 10
19.7722770189222
 20
19.83762023679041
 30
-0.5
 11
19.9597770189222
 21
19.83762023679041
 31
-0.5
  0
LINE
  5
1060
330
1F
100
AcDbEntity
  8
0
100
AcDbLine
 10
20.20528972081441
 20
18.58762023679041
 30
-0.5
 11
20.39278972081441
 21
18.58762023679041
 31
-0.5
  0
LINE
  5
1061
330
1F
100
AcDbEntity
  8
0
100
AcDbLine
 10
20.82580242270664
 20
19.33762023679041
 30
-0.5
 11
20.91955242270664
 21
19.5
 31
-0.5
  0
LINE
  5
1062
330
1F
100
AcDbEntity
  8
0
100
AcDbLine
 10
19.52676431702997
 20
18.91237976320957
 30
-0.5
 11
19.33926431702997
 21
18.91237976320957
 31
-0.5
  0
LINE
  5
1063
330
1F
100
AcDbEntity
  8
0
100
AcDbLine
 10
20.97756512459885
 20
20.25
 30
-0.5
 11
21.07131512459885
 21
20.08762023679041
 31
-0.5
  0
LINE
  5
1064
330
1F
100
AcDbEntity
  8
0
100
AcDbLine
 10
20.54455242270664
 20
15.99999999999999
 30
-0.5
 11
20.63830242270664
 21
15.83762023679041
 31
-0.5
  0
LINE
  5
1065
330
1F
100
AcDbEntity
  8
0
100
AcDbLine
 10
20.63830242270664
 20
21.33762023679041
 30
-0.5
 11
20.82580242270664
 21
21.33762023679041
 31
-0.5
  0
LINE
  5
1066
330
1F
100
AcDbEntity
  8
0
100
AcDbLine
 10
21.35256512459885
 20
16.25
 30
-0.5
 11
21.25881512459885
 21
16.41237976320957
 31
-0.5
  0
LINE
  5
1067
330
1F
100
AcDbEntity
  8
0
100
AcDbLine
 10
18.47323891324553
 20
21.08762023679041
 30
-0.5
 11
18.66073891324553
 21
21.08762023679041
 31
-0.5
  0
LINE
  5
1068
330
1F
100
AcDbEntity
  8
0
100
AcDbLine
 10
21.93734052838329
 20
21.08762023679041
 30
-0.5
 11
22.12484052838329
 21
21.08762023679041
 31
-0.5
  0
LINE
  5
1069
330
1F
100
AcDbEntity
  8
0
100
AcDbLine
 10
19.09375161513776
 20
17.83762023679041
 30
-0.5
 11
19.18750161513776
 21
18.0
 31
-0.5
  0
LINE
  5
1070
330
1F
100
AcDbEntity
  8
0
100
AcDbLine
 10
22.12484052838329
 20
21.08762023679041
 30
-0.5
 11
22.21859052838329
 21
21.25
 31
-0.5
  0
LINE
  5
1071
330
1F
100
AcDbEntity
  8
0
100
AcDbLine
 10
19.9597770189222
 20
17.16237976320957
 30
-0.5
 11
19.7722770189222
 21
17.16237976320957
 31
-0.5
  0
LINE
  5
1072
330
1F
100
AcDbEntity
  8
0
100
AcDbLine
 10
22.21859052838329
 20
21.25
 30
-0.5
 11
22.12484052838329
 21
21.41237976320958
 31
-0.5
  0
LINE
  5
1073
330
1F
100
AcDbEntity
  8
0
100
AcDbLine
 10
19.33926431702997
 20
18.41237976320957
 30
-0.5
 11
19.24551431702997
 21
18.25
 31
-0.5
  0
LINE
  5
1074
330
1F
100
AcDbEntity
  8
0
100
AcDbLine
 10
22.12484052838329
 20
21.41237976320958
 30
-0.5
 11
21.93734052838329
 21
21.41237976320958
 31
-0.5
  0
LINE
  5
1075
330
1F
100
AcDbEntity
  8
0
100
AcDbLine
 10
19.6785270189222
 20
15.99999999999999
 30
-0.5
 11
19.7722770189222
 21
15.83762023679041
 31
-0.5
  0
LINE
  5
1076
330
1F
100
AcDbEntity
  8
0
100
AcDbLine
 10
20.20528972081441
 20
19.08762023679041
 30
-0.5
 11
20.39278972081441
 21
19.08762023679041
 31
-0.5
  0
LINE
  5
1077
330
1F
100
AcDbEntity
  8
0
100
AcDbLine
 10
19.09375161513776
 20
18.33762023679041
 30
-0.5
 11
19.18750161513776
 21
18.5
 31
-0.5
  0
LINE
  5
1078
330
1F
100
AcDbEntity
  8
0
100
AcDbLine
 10
20.11153972081441
 20
21.25
 30
-0.5
 11
20.20528972081441
 21
21.08762023679041
 31
-0.5
  0
LINE
  5
1079
330
1F
100
AcDbEntity
  8
0
100
AcDbLine
 10
18.66073891324553
 20
21.5876202367904
 30
-0.5
 11
18.75448891324553
 21
21.75
 31
-0.5
  0
LINE
  5
1080
330
1F
100
AcDbEntity
  8
0
100
AcDbLine
 10
20.54455242270664
 20
21.0
 30
-0.5
 11
20.63830242270664
 21
20.83762023679041
 31
-0.5
  0
LINE
  5
1081
330
1F
100
AcDbEntity
  8
0
100
AcDbLine
 10
22.12484052838329
 20
20.58762023679042
 30
-0.5
 11
22.21859052838329
 21
20.75
 31
-0.5
  0
LINE
  5
1082
330
1F
100
AcDbEntity
  8
0
100
AcDbLine
 10
19.18750161513776
 20
18.5
 30
-0.5
 11
19.09375161513776
 21
18.66237976320957
 31
-0.5
  0
LINE
  5
1083
330
1F
100
AcDbEntity
  8
0
100
AcDbLine
 10
20.0535270189222
 20
21.0
 30
-0.5
 11
19.9597770189222
 21
21.16237976320958
 31
-0.5
  0
LINE
  5
1084
330
1F
100
AcDbEntity
  8
0
100
AcDbLine
 10
19.18750161513776
 20
19.0
 30
-0.5
 11
19.09375161513776
 21
19.16237976320957
 31
-0.5
  0
LINE
  5
1085
330
1F
100
AcDbEntity
  8
0
100
AcDbLine
 10
22.21859052838329
 20
20.75
 30
-0.5
 11
22.12484052838329
 21
20.91237976320957
 31
-0.5
  0
LINE
  5
1086
330
1F
100
AcDbEntity
  8
0
100
AcDbLine
 10
18.81250161513776
 20
20.5
 30
-0.5
 11
18.90625161513776
 21
20.33762023679042
 31
-0.5
  0
LINE
  5
1087
330
1F
100
AcDbEntity
  8
0
100
AcDbLine
 10
21.35256512459885
 20
20.25
 30
-0.5
 11
21.25881512459885
 21
20.41237976320958
 31
-0.5
  0
LINE
  5
1088
330
1F
100
AcDbEntity
  8
0
100
AcDbLine
 10
19.09375161513776
 20
20.66237976320957
 30
-0.5
 11
18.90625161513776
 21
20.66237976320957
 31
-0.5
  0
LINE
  5
1089
330
1F
100
AcDbEntity
  8
0
100
AcDbLine
 10
21.93734052838329
 20
17.58762023679041
 30
-0.5
 11
22.12484052838329
 21
17.58762023679041
 31
-0.5
  0
LINE
  5
1090
330
1F
100
AcDbEntity
  8
0
100
AcDbLine
 10
19.09375161513776
 20
16.66237976320958
 30
-0.5
 11
18.90625161513776
 21
16.66237976320958
 31
-0.5
  0
LINE
  5
1091
330
1F
100
AcDbEntity
  8
0
100
AcDbLine
 10
22.12484052838329
 20
20.91237976320957
 30
-0.5
 11
21.93734052838329
 21
20.91237976320957
 31
-0.5
  0
LINE
  5
1092
330
1F
100
AcDbEntity
  8
0
100
AcDbLine
 10
19.33926431702997
 20
17.08762023679041
 30
-0.5
 11
19.52676431702997
 21
17.08762023679041
 31
-0.5
  0
LINE
  5
1093
330
1F
100
AcDbEntity
  8
0
100
AcDbLine
 10
21.93734052838329
 20
21.41237976320958
 30
-0.5
 11
21.84359052838329
 21
21.25
 31
-0.5
  0
LINE
  5
1094
330
1F
100
AcDbEntity
  8
0
100
AcDbLine
 10
19.9597770189222
 20
17.33762023679042
 30
-0.5
 11
20.0535270189222
 21
17.49999999999999
 31
-0.5
  0
LINE
  5
1095
330
1F
100
AcDbEntity
  8
0
100
AcDbLine
 10
21.84359052838329
 20
21.25
 30
-0.5
 11
21.93734052838329
 21
21.08762023679041
 31
-0.5
  0
LINE
  5
1096
330
1F
100
AcDbEntity
  8
0
100
AcDbLine
 10
19.33926431702997
 20
17.41237976320958
 30
-0.5
 11
19.24551431702997
 21
17.24999999999999
 31
-0.5
  0
LINE
  5
1097
330
1F
100
AcDbEntity
  8
0
100
AcDbLine
 10
21.25881512459885
 20
17.08762023679041
 30
-0.5
 11
21.35256512459885
 21
17.24999999999999
 31
-0.5
  0
LINE
  5
1098
330
1F
100
AcDbEntity
  8
0
100
AcDbLine
 10
19.9597770189222
 20
17.66237976320958
 30
-0.5
 11
19.7722770189222
 21
17.66237976320958
 31
-0.5
  0
LINE
  5
1099
330
1F
100
AcDbEntity
  8
0
100
AcDbLine
 10
21.35256512459885
 20
20.75
 30
-0.5
 11
21.25881512459885
 21
20.91237976320957
 31
-0.5
  0
LINE
  5
1100
330
1F
100
AcDbEntity
  8
0
100
AcDbLine
 10
20.97756512459885
 20
16.74999999999999
 30
-0.5
 11
21.07131512459885
 21
16.58762023679042
 31
-0.5
  0
LINE
  5
1101
330
1F
100
AcDbEntity
  8
0
100
AcDbLine
 10
19.62051431702997
 20
20.75
 30
-0.5
 11
19.52676431702997
 21
20.91237976320957
 31
-0.5
  0
LINE
  5
1102
330
1F
100
AcDbEntity
  8
0
100
AcDbLine
 10
19.9597770189222
 20
20.83762023679041
 30
-0.5
 11
20.0535270189222
 21
21.0
 31
-0.5
  0
LINE
  5
1103
330
1F
100
AcDbEntity
  8
0
100
AcDbLine
 10
19.24551431702997
 20
20.25
 30
-0.5
 11
19.33926431702997
 21
20.08762023679041
 31
-0.5
  0
LINE
  5
1104
330
1F
100
AcDbEntity
  8
0
100
AcDbLine
 10
21.69182782649107
 20
21.33762023679041
 30
-0.5
 11
21.78557782649106
 21
21.5
 31
-0.5
  0
LINE
  5
1105
330
1F
100
AcDbEntity
  8
0
100
AcDbLine
 10
18.90625161513776
 20
17.33762023679042
 30
-0.5
 11
19.09375161513776
 21
17.33762023679042
 31
-0.5
  0
LINE
  5
1106
330
1F
100
AcDbEntity
  8
0
100
AcDbLine
 10
21.69182782649107
 20
16.16237976320958
 30
-0.5
 11
21.50432782649106
 21
16.16237976320958
 31
-0.5
  0
LINE
  5
1107
330
1F
100
AcDbEntity
  8
0
100
AcDbLine
 10
21.69182782649107
 20
17.33762023679042
 30
-0.5
 11
21.78557782649106
 21
17.49999999999999
 31
-0.5
  0
LINE
  5
1108
330
1F
100
AcDbEntity
  8
0
100
AcDbLine
 10
20.39278972081441
 20
17.58762023679041
 30
-0.5
 11
20.48653972081441
 21
17.75
 31
-0.5
  0
LINE
  5
1109
330
1F
100
AcDbEntity
  8
0
100
AcDbLine
 10
18.47323891324553
 20
21.91237976320957
 30
-0.5
 11
18.37948891324553
 21
21.75
 31
-0.5
  0
LINE
  5
1110
330
1F
100
AcDbEntity
  8
0
100
AcDbLine
 10
21.25881512459885
 20
21.41237976320958
 30
-0.5
 11
21.07131512459885
 21
21.41237976320958
 31
-0.5
  0
LINE
  5
1111
330
1F
100
AcDbEntity
  8
0
100
AcDbLine
 10
19.62051431702997
 20
16.25
 30
-0.5
 11
19.52676431702997
 21
16.41237976320957
 31
-0.5
  0
LINE
  5
1112
330
1F
100
AcDbEntity
  8
0
100
AcDbLine
 10
22.21859052838329
 20
17.75
 30
-0.5
 11
22.12484052838329
 21
17.91237976320957
 31
-0.5
  0
LINE
  5
1113
330
1F
100
AcDbEntity
  8
0
100
AcDbLine
 10
19.6785270189222
 20
18.0
 30
-0.5
 11
19.7722770189222
 21
17.83762023679041
 31
-0.5
  0
LINE
  5
1114
330
1F
100
AcDbEntity
  8
0
100
AcDbLine
 10
22.12484052838329
 20
17.91237976320957
 30
-0.5
 11
21.93734052838329
 21
17.91237976320957
 31
-0.5
  0
LINE
  5
1115
330
1F
100
AcDbEntity
  8
0
100
AcDbLine
 10
19.24551431702997
 20
21.75
 30
-0.5
 11
19.33926431702997
 21
21.5876202367904
 31
-0.5
  0
LINE
  5
1116
330
1F
100
AcDbEntity
  8
0
100
AcDbLine
 10
20.39278972081441
 20
18.91237976320957
 30
-0.5
 11
20.20528972081441
 21
18.91237976320957
 31
-0.5
  0
LINE
  5
1117
330
1F
100
AcDbEntity
  8
0
100
AcDbLine
 10
20.39278972081441
 20
21.08762023679041
 30
-0.5
 11
20.48653972081441
 21
21.25
 31
-0.5
  0
LINE
  5
1118
330
1F
100
AcDbEntity
  8
0
100
AcDbLine
 10
21.07131512459885
 20
17.41237976320958
 30
-0.5
 11
20.97756512459885
 21
17.24999999999999
 31
-0.5
  0
LINE
  5
1119
330
1F
100
AcDbEntity
  8
0
100
AcDbLine
 10
20.39278972081441
 20
21.91237976320957
 30
-0.5
 11
20.20528972081441
 21
21.91237976320957
 31
-0.5
  0
LINE
  5
1120
330
1F
100
AcDbEntity
  8
0
100
AcDbLine
 10
20.39278972081441
 20
20.58762023679042
 30
-0.5
 11
20.48653972081441
 21
20.75
 31
-0.5
  0
LINE
  5
1121
330
1F
100
AcDbEntity
  8
0
100
AcDbLine
 10
20.11153972081441
 20
16.25
 30
-0.5
 11
20.20528972081441
 21
16.08762023679041
 31
-0.5
  0
LINE
  5
1122
330
1F
100
AcDbEntity
  8
0
100
AcDbLine
 10
21.25881512459885
 20
21.5876202367904
 30
-0.5
 11
21.35256512459885
 21
21.75
 31
-0.5
  0
LINE
  5
1123
330
1F
100
AcDbEntity
  8
0
100
AcDbLine
 10
20.97756512459885
 20
19.25
 30
-0.5
 11
21.07131512459885
 21
19.08762023679041
 31
-0.5
  0
LINE
  5
1124
330
1F
100
AcDbEntity
  8
0
100
AcDbLine
 10
20.0535270189222
 20
21.5
 30
-0.5
 11
19.9597770189222
 21
21.66237976320957
 31
-0.5
  0
LINE
  5
1125
330
1F
100
AcDbEntity
  8
0
100
AcDbLine
 10
20.82580242270664
 20
17.83762023679041
 30
-0.5
 11
20.91955242270664
 21
18.0
 31
-0.5
  0
LINE
  5
1126
330
1F
100
AcDbEntity
  8
0
100
AcDbLine
 10
19.33926431702997
 20
19.41237976320957
 30
-0.5
 11
19.24551431702997
 21
19.25
 31
-0.5
  0
LINE
  5
1127
330
1F
100
AcDbEntity
  8
0
100
AcDbLine
 10
22.12484052838329
 20
17.58762023679041
 30
-0.5
 11
22.21859052838329
 21
17.75
 31
-0.5
  0
LINE
  5
1128
330
1F
100
AcDbEntity
  8
0
100
AcDbLine
 10
19.09375161513776
 20
19.83762023679041
 30
-0.5
 11
19.18750161513776
 21
20.0
 31
-0.5
  0
LINE
  5
1129
330
1F
100
AcDbEntity
  8
0
100
AcDbLine
 10
20.20528972081441
 20
16.08762023679041
 30
-0.5
 11
20.39278972081441
 21
16.08762023679041
 31
-0.5
  0
LINE
  5
1130
330
1F
100
AcDbEntity
  8
0
100
AcDbLine
 10
20.0535270189222
 20
16.49999999999999
 30
-0.5
 11
19.9597770189222
 21
16.66237976320958
 31
-0.5
  0
LINE
  5
1131
330
1F
100
AcDbEntity
  8
0
100
AcDbLine
 10
20.63830242270664
 20
17.83762023679041
 30
-0.5
 11
20.82580242270664
 21
17.83762023679041
 31
-0.5
  0
LINE
  5
1132
330
1F
100
AcDbEntity
  8
0
100
AcDbLine
 10
21.93734052838329
 20
16.41237976320957
 30
-0.5
 11
21.84359052838329
 21
16.25
 31
-0.5
  0
LINE
  5
1133
330
1F
100
AcDbEntity
  8
0
100
AcDbLine
 10
19.6785270189222
 20
21.0
 30
-0.5
 11
19.7722770189222
 21
20.83762023679041
 31
-0.5
  0
LINE
  5
1134
330
1F
100
AcDbEntity
  8
0
100
AcDbLine
 10
21.84359052838329
 20
16.25
 30
-0.5
 11
21.93734052838329
 21
16.08762023679041
 31
-0.5
  0
LINE
  5
1135
330
1F
100
AcDbEntity
  8
0
100
AcDbLine
 10
19.62051431702997
 20
18.25
 30
-0.5
 11
19.52676431702997
 21
18.41237976320957
 31
-0.5
  0
LINE
  5
1136
330
1F
100
AcDbEntity
  8
0
100
AcDbLine
 10
21.93734052838329
 20
16.08762023679041
 30
-0.5
 11
22.12484052838329
 21
16.08762023679041
 31
-0.5
  0
LINE
  5
1137
330
1F
100
AcDbEntity
  8
0
100
AcDbLine
 10
20.63830242270664
 20
21.16237976320958
 30
-0.5
 11
20.54455242270664
 21
21.0
 31
-0.5
  0
LINE
  5
1138
330
1F
100
AcDbEntity
  8
0
100
AcDbLine
 10
20.82580242270664
 20
18.33762023679041
 30
-0.5
 11
20.91955242270664
 21
18.5
 31
-0.5
  0
LINE
  5
1139
330
1F
100
AcDbEntity
  8
0
100
AcDbLine
 10
20.0535270189222
 20
17.49999999999999
 30
-0.5
 11
19.9597770189222
 21
17.66237976320958
 31
-0.5
  0
LINE
  5
1140
330
1F
100
AcDbEntity
  8
0
100
AcDbLine
 10
19.6785270189222
 20
19.5
 30
-0.5
 11
19.7722770189222
 21
19.33762023679041
 31
-0.5
  0
LINE
  5
1141
330
1F
100
AcDbEntity
  8
0
100
AcDbLine
 10
21.07131512459885
 20
21.08762023679041
 30
-0.5
 11
21.25881512459885
 21
21.08762023679041
 31
-0.5
  0
LINE
  5
1142
330
1F
100
AcDbEntity
  8
0
100
AcDbLine
 10
20.0535270189222
 20
19.0
 30
-0.5
 11
19.9597770189222
 21
19.16237976320957
 31
-0.5
  0
LINE
  5
1143
330
1F
100
AcDbEntity
  8
0
100
AcDbLine
 10
21.07131512459885
 20
19.41237976320957
 30
-0.5
 11
20.97756512459885
 21
19.25
 31
-0.5
  0
LINE
  5
1144
330
1F
100
AcDbEntity
  8
0
100
AcDbLine
 10
21.07131512459885
 20
20.08762023679041
 30
-0.5
 11
21.25881512459885
 21
20.08762023679041
 31
-0.5
  0
LINE
  5
1145
330
1F
100
AcDbEntity
  8
0
100
AcDbLine
 10
19.7722770189222
 20
20.66237976320957
 30
-0.5
 11
19.6785270189222
 21
20.5
 31
-0.5
  0
LINE
  5
1146
330
1F
100
AcDbEntity
  8
0
100
AcDbLine
 10
20.63830242270664
 20
21.8376202367904
 30
-0.5
 11
20.82580242270664
 21
21.8376202367904
 31
-0.5
  0
LINE
  5
1147
330
1F
100
AcDbEntity
  8
0
100
AcDbLine
 10
21.07131512459885
 20
21.5876202367904
 30
-0.5
 11
21.25881512459885
 21
21.5876202367904
 31
-0.5
  0
LINE
  5
1148
330
1F
100
AcDbEntity
  8
0
100
AcDbLine
 10
21.35256512459885
 20
17.75
 30
-0.5
 11
21.25881512459885
 21
17.91237976320957
 31
-0.5
  0
LINE
  5
1149
330
1F
100
AcDbEntity
  8
0
100
AcDbLine
 10
20.39278972081441
 20
17.91237976320957
 30
-0.5
 11
20.20528972081441
 21
17.91237976320957
 31
-0.5
  0
LINE
  5
1150
330
1F
100
AcDbEntity
  8
0
100
AcDbLine
 10
19.9597770189222
 20
22.16237976320957
 30
-0.5
 11
19.7722770189222
 21
22.16237976320957
 31
-0.5
  0
LINE
  5
1151
330
1F
100
AcDbEntity
  8
0
100
AcDbLine
 10
20.20528972081441
 20
20.08762023679041
 30
-0.5
 11
20.39278972081441
 21
20.08762023679041
 31
-0.5
  0
LINE
  5
1152
330
1F
100
AcDbEntity
  8
0
100
AcDbLine
 10
21.07131512459885
 20
18.41237976320957
 30
-0.5
 11
20.97756512459885
 21
18.25
 31
-0.5
  0
LINE
  5
1153
330
1F
100
AcDbEntity
  8
0
100
AcDbLine
 10
19.7722770189222
 20
19.33762023679041
 30
-0.5
 11
19.9597770189222
 21
19.33762023679041
 31
-0.5
  0
LINE
  5
1154
330
1F
100
AcDbEntity
  8
0
100
AcDbLine
 10
18.90625161513776
 20
19.66237976320957
 30
-0.5
 11
18.81250161513776
 21
19.5
 31
-0.5
  0
LINE
  5
1155
330
1F
100
AcDbEntity
  8
0
100
AcDbLine
 10
20.48653972081441
 20
21.25
 30
-0.5
 11
20.39278972081441
 21
21.41237976320958
 31
-0.5
  0
LINE
  5
1156
330
1F
100
AcDbEntity
  8
0
100
AcDbLine
 10
20.11153972081441
 20
16.74999999999999
 30
-0.5
 11
20.20528972081441
 21
16.58762023679042
 31
-0.5
  0
LINE
  5
1157
330
1F
100
AcDbEntity
  8
0
100
AcDbLine
 10
20.20528972081441
 20
20.91237976320957
 30
-0.5
 11
20.11153972081441
 21
20.75
 31
-0.5
  0
LINE
  5
1158
330
1F
100
AcDbEntity
  8
0
100
AcDbLine
 10
18.90625161513776
 20
16.33762023679041
 30
-0.5
 11
19.09375161513776
 21
16.33762023679041
 31
-0.5
  0
LINE
  5
1159
330
1F
100
AcDbEntity
  8
0
100
AcDbLine
 10
19.9597770189222
 20
20.33762023679042
 30
-0.5
 11
20.0535270189222
 21
20.5
 31
-0.5
  0
LINE
  5
1160
330
1F
100
AcDbEntity
  8
0
100
AcDbLine
 10
18.66073891324553
 20
21.08762023679041
 30
-0.5
 11
18.75448891324553
 21
21.25
 31
-0.5
  0
LINE
  5
1161
330
1F
100
AcDbEntity
  8
0
100
AcDbLine
 10
19.33926431702997
 20
16.58762023679042
 30
-0.5
 11
19.52676431702997
 21
16.58762023679042
 31
-0.5
  0
LINE
  5
1162
330
1F
100
AcDbEntity
  8
0
100
AcDbLine
 10
21.07131512459885
 20
21.91237976320957
 30
-0.5
 11
20.97756512459885
 21
21.75
 31
-0.5
  0
LINE
  5
1163
330
1F
100
AcDbEntity
  8
0
100
AcDbLine
 10
20.39278972081441
 20
16.58762023679042
 30
-0.5
 11
20.48653972081441
 21
16.74999999999999
 31
-0.5
  0
LINE
  5
1164
330
1F
100
AcDbEntity
  8
0
100
AcDbLine
 10
19.9597770189222
 20
18.16237976320957
 30
-0.5
 11
19.7722770189222
 21
18.16237976320957
 31
-0.5
  0
LINE
  5
1165
330
1F
100
AcDbEntity
  8
0
100
AcDbLine
 10
22.12484052838329
 20
18.41237976320957
 30
-0.5
 11
21.93734052838329
 21
18.41237976320957
 31
-0.5
  0
LINE
  5
1166
330
1F
100
AcDbEntity
  8
0
100
AcDbLine
 10
21.93734052838329
 20
18.91237976320957
 30
-0.5
 11
21.84359052838329
 21
18.75
 31
-0.5
  0
LINE
  5
1167
330
1F
100
AcDbEntity
  8
0
100
AcDbLine
 10
18.90625161513776
 20
16.66237976320958
 30
-0.5
 11
18.81250161513776
 21
16.49999999999999
 31
-0.5
  0
LINE
  5
1168
330
1F
100
AcDbEntity
  8
0
100
AcDbLine
 10
21.50432782649106
 20
17.16237976320957
 30
-0.5
 11
21.41057782649107
 21
17.0
 31
-0.5
  0
LINE
  5
1169
330
1F
100
AcDbEntity
  8
0
100
AcDbLine
 10
19.33926431702997
 20
20.08762023679041
 30
-0.5
 11
19.52676431702997
 21
20.08762023679041
 31
-0.5
  0
LINE
  5
1170
330
1F
100
AcDbEntity
  8
0
100
AcDbLine
 10
21.93734052838329
 20
18.58762023679041
 30
-0.5
 11
22.12484052838329
 21
18.58762023679041
 31
-0.5
  0
LINE
  5
1171
330
1F
100
AcDbEntity
  8
0
100
AcDbLine
 10
22.12484052838329
 20
18.58762023679041
 30
-0.5
 11
22.21859052838329
 21
18.75
 31
-0.5
  0
LINE
  5
1172
330
1F
100
AcDbEntity
  8
0
100
AcDbLine
 10
19.7722770189222
 20
17.66237976320958
 30
-0.5
 11
19.6785270189222
 21
17.49999999999999
 31
-0.5
  0
LINE
  5
1173
330
1F
100
AcDbEntity
  8
0
100
AcDbLine
 10
22.21859052838329
 20
18.75
 30
-0.5
 11
22.12484052838329
 21
18.91237976320957
 31
-0.5
  0
LINE
  5
1174
330
1F
100
AcDbEntity
  8
0
100
AcDbLine
 10
19.62051431702997
 20
17.75
 30
-0.5
 11
19.52676431702997
 21
17.91237976320957
 31
-0.5
  0
LINE
  5
1175
330
1F
100
AcDbEntity
  8
0
100
AcDbLine
 10
22.12484052838329
 20
18.91237976320957
 30
-0.5
 11
21.93734052838329
 21
18.91237976320957
 31
-0.5
  0
LINE
  5
1176
330
1F
100
AcDbEntity
  8
0
100
AcDbLine
 10
19.33926431702997
 20
20.58762023679042
 30
-0.5
 11
19.52676431702997
 21
20.58762023679042
 31
-0.5
  0
LINE
  5
1177
330
1F
100
AcDbEntity
  8
0
100
AcDbLine
 10
21.07131512459885
 20
18.91237976320957
 30
-0.5
 11
20.97756512459885
 21
18.75
 31
-0.5
  0
LINE
  5
1178
330
1F
100
AcDbEntity
  8
0
100
AcDbLine
 10
19.52676431702997
 20
19.08762023679041
 30
-0.5
 11
19.62051431702997
 21
19.25
 31
-0.5
  0
LINE
  5
1179
330
1F
100
AcDbEntity
  8
0
100
AcDbLine
 10
20.63830242270664
 20
20.66237976320957
 30
-0.5
 11
20.54455242270664
 21
20.5
 31
-0.5
  0
LINE
  5
1180
330
1F
100
AcDbEntity
  8
0
100
AcDbLine
 10
19.18750161513776
 20
20.0
 30
-0.5
 11
19.09375161513776
 21
20.16237976320958
 31
-0.5
  0
LINE
  5
1181
330
1F
100
AcDbEntity
  8
0
100
AcDbLine
 10
20.82580242270664
 20
17.66237976320958
 30
-0.5
 11
20.63830242270664
 21
17.66237976320958
 31
-0.5
  0
LINE
  5
1182
330
1F
100
AcDbEntity
  8
0
100
AcDbLine
 10
19.09375161513776
 20
16.33762023679041
 30
-0.5
 11
19.18750161513776
 21
16.49999999999999
 31
-0.5
  0
LINE
  5
1183
330
1F
100
AcDbEntity
  8
0
100
AcDbLine
 10
20.20528972081441
 20
17.08762023679041
 30
-0.5
 11
20.39278972081441
 21
17.08762023679041
 31
-0.5
  0
LINE
  5
1184
330
1F
100
AcDbEntity
  8
0
100
AcDbLine
 10
19.52676431702997
 20
20.91237976320957
 30
-0.5
 11
19.33926431702997
 21
20.91237976320957
 31
-0.5
  0
LINE
  5
1185
330
1F
100
AcDbEntity
  8
0
100
AcDbLine
 10
20.82580242270664
 20
19.66237976320957
 30
-0.5
 11
20.63830242270664
 21
19.66237976320957
 31
-0.5
  0
LINE
  5
1186
330
1F
100
AcDbEntity
  8
0
100
AcDbLine
 10
19.33926431702997
 20
16.41237976320957
 30
-0.5
 11
19.24551431702997
 21
16.25
 31
-0.5
  0
LINE
  5
1187
330
1F
100
AcDbEntity
  8
0
100
AcDbLine
 10
21.41057782649107
 20
20.5
 30
-0.5
 11
21.50432782649106
 21
20.33762023679042
 31
-0.5
  0
LINE
  5
1188
330
1F
100
AcDbEntity
  8
0
100
AcDbLine
 10
19.09375161513776
 20
19.33762023679041
 30
-0.5
 11
19.18750161513776
 21
19.5
 31
-0.5
  0
LINE
  5
1189
330
1F
100
AcDbEntity
  8
0
100
AcDbLine
 10
21.50432782649106
 20
20.33762023679042
 30
-0.5
 11
21.69182782649107
 21
20.33762023679042
 31
-0.5
  0
LINE
  5
1190
330
1F
100
AcDbEntity
  8
0
100
AcDbLine
 10
19.7722770189222
 20
16.83762023679041
 30
-0.5
 11
19.9597770189222
 21
16.83762023679041
 31
-0.5
  0
LINE
  5
1191
330
1F
100
AcDbEntity
  8
0
100
AcDbLine
 10
21.07131512459885
 20
16.91237976320957
 30
-0.5
 11
20.97756512459885
 21
16.74999999999999
 31
-0.5
  0
LINE
  5
1192
330
1F
100
AcDbEntity
  8
0
100
AcDbLine
 10
18.90625161513776
 20
21.33762023679041
 30
-0.5
 11
19.09375161513776
 21
21.33762023679041
 31
-0.5
  0
LINE
  5
1193
330
1F
100
AcDbEntity
  8
0
100
AcDbLine
 10
20.97756512459885
 20
17.75
 30
-0.5
 11
21.07131512459885
 21
17.58762023679041
 31
-0.5
  0
LINE
  5
1194
330
1F
100
AcDbEntity
  8
0
100
AcDbLine
 10
19.33926431702997
 20
20.41237976320958
 30
-0.5
 11
19.24551431702997
 21
20.25
 31
-0.5
  0
LINE
  5
1195
330
1F
100
AcDbEntity
  8
0
100
AcDbLine
 10
20.39278972081441
 20
18.58762023679041
 30
-0.5
 11
20.48653972081441
 21
18.75
 31
-0.5
  0
LINE
  5
1196
330
1F
100
AcDbEntity
  8
0
100
AcDbLine
 10
19.09375161513776
 20
18.83762023679041
 30
-0.5
 11
19.18750161513776
 21
19.0
 31
-0.5
  0
LINE
  5
1197
330
1F
100
AcDbEntity
  8
0
100
AcDbLine
 10
20.82580242270664
 20
19.83762023679041
 30
-0.5
 11
20.91955242270664
 21
20.0
 31
-0.5
  0
LINE
  5
1198
330
1F
100
AcDbEntity
  8
0
100
AcDbLine
 10
20.82580242270664
 20
15.83762023679041
 30
-0.5
 11
20.91955242270664
 21
15.99999999999999
 31
-0.5
  0
LINE
  5
1199
330
1F
100
AcDbEntity
  8
0
100
AcDbLine
 10
19.9597770189222
 20
19.83762023679041
 30
-0.5
 11
20.0535270189222
 21
20.0
 31
-0.5
  0
LINE
  5
1200
330
1F
100
AcDbEntity
  8
0
100
AcDbLine
 10
20.82580242270664
 20
18.66237976320957
 30
-0.5
 11
20.63830242270664
 21
18.66237976320957
 31
-0.5
  0
LINE
  5
1201
330
1F
100
AcDbEntity
  8
0
100
AcDbLine
 10
19.09375161513776
 20
20.33762023679042
 30
-0.5
 11
19.18750161513776
 21
20.5
 31
-0.5
  0
LINE
  5
1202
330
1F
100
AcDbEntity
  8
0
100
AcDbLine
 10
20.39278972081441
 20
21.5876202367904
 30
-0.5
 11
20.48653972081441
 21
21.75
 31
-0.5
  0
LINE
  5
1203
330
1F
100
AcDbEntity
  8
0
100
AcDbLine
 10
21.25881512459885
 20
21.08762023679041
 30
-0.5
 11
21.35256512459885
 21
21.25
 31
-0.5
  0
LINE
  5
1204
330
1F
100
AcDbEntity
  8
0
100
AcDbLine
 10
20.39278972081441
 20
17.41237976320958
 30
-0.5
 11
20.20528972081441
 21
17.41237976320958
 31
-0.5
  0
LINE
  5
1205
330
1F
100
AcDbEntity
  8
0
100
AcDbLine
 10
20.11153972081441
 20
19.75
 30
-0.5
 11
20.20528972081441
 21
19.58762023679041
 31
-0.5
  0
LINE
  5
1206
330
1F
100
AcDbEntity
  8
0
100
AcDbLine
 10
20.39278972081441
 20
18.41237976320957
 30
-0.5
 11
20.20528972081441
 21
18.41237976320957
 31
-0.5
  0
LINE
  5
1207
330
1F
100
AcDbEntity
  8
0
100
AcDbLine
 10
20.91955242270664
 20
20.0
 30
-0.5
 11
20.82580242270664
 21
20.16237976320958
 31
-0.5
  0
LINE
  5
1208
330
1F
100
AcDbEntity
  8
0
100
AcDbLine
 10
20.0535270189222
 20
19.5
 30
-0.5
 11
19.9597770189222
 21
19.66237976320957
 31
-0.5
  0
LINE
  5
1209
330
1F
100
AcDbEntity
  8
0
100
AcDbLine
 10
21.25881512459885
 20
18.41237976320957
 30
-0.5
 11
21.07131512459885
 21
18.41237976320957
 31
-0.5
  0
LINE
  5
1210
330
1F
100
AcDbEntity
  8
0
100
AcDbLine
 10
21.35256512459885
 20
21.25
 30
-0.5
 11
21.25881512459885
 21
21.41237976320958
 31
-0.5
  0
LINE
  5
1211
330
1F
100
AcDbEntity
  8
0
100
AcDbLine
 10
18.66073891324553
 20
21.41237976320958
 30
-0.5
 11
18.47323891324553
 21
21.41237976320958
 31
-0.5
  0
LINE
  5
1212
330
1F
100
AcDbEntity
  8
0
100
AcDbLine
 10
21.25881512459885
 20
18.08762023679041
 30
-0.5
 11
21.35256512459885
 21
18.25
 31
-0.5
  0
LINE
  5
1213
330
1F
100
AcDbEntity
  8
0
100
AcDbLine
 10
20.20528972081441
 20
20.41237976320958
 30
-0.5
 11
20.11153972081441
 21
20.25
 31
-0.5
  0
LINE
  5
1214
330
1F
100
AcDbEntity
  8
0
100
AcDbLine
 10
21.25881512459885
 20
17.58762023679041
 30
-0.5
 11
21.35256512459885
 21
17.75
 31
-0.5
  0
LINE
  5
1215
330
1F
100
AcDbEntity
  8
0
100
AcDbLine
 10
20.97756512459885
 20
18.25
 30
-0.5
 11
21.07131512459885
 21
18.08762023679041
 31
-0.5
  0
LINE
  5
1216
330
1F
100
AcDbEntity
  8
0
100
AcDbLine
 10
20.0535270189222
 20
22.0
 30
-0.5
 11
19.9597770189222
 21
22.16237976320957
 31
-0.5
  0
LINE
  5
1217
330
1F
100
AcDbEntity
  8
0
100
AcDbLine
 10
19.9597770189222
 20
21.66237976320957
 30
-0.5
 11
19.7722770189222
 21
21.66237976320957
 31
-0.5
  0
LINE
  5
1218
330
1F
100
AcDbEntity
  8
0
100
AcDbLine
 10
20.97756512459885
 20
19.75
 30
-0.5
 11
21.07131512459885
 21
19.58762023679041
 31
-0.5
  0
LINE
  5
1219
330
1F
100
AcDbEntity
  8
0
100
AcDbLine
 10
15.87516270189221
 20
18.91237976320957
 30
-0.5
 11
15.78141270189221
 21
18.75
 31
-0.5
  0
LINE
  5
1220
330
1F
100
AcDbEntity
  8
0
100
AcDbLine
 10
16.92868810567665
 20
17.08762023679041
 30
-0.5
 11
17.02243810567665
 21
17.24999999999999
 31
-0.5
  0
LINE
  5
1221
330
1F
100
AcDbEntity
  8
0
100
AcDbLine
 10
16.06266270189221
 20
18.58762023679041
 30
-0.5
 11
16.15641270189221
 21
18.75
 31
-0.5
  0
LINE
  5
1222
330
1F
100
AcDbEntity
  8
0
100
AcDbLine
 10
15.87516270189221
 20
18.58762023679041
 30
-0.5
 11
16.06266270189221
 21
18.58762023679041
 31
-0.5
  0
LINE
  5
1223
330
1F
100
AcDbEntity
  8
0
100
AcDbLine
 10
15.78141270189221
 20
18.75
 30
-0.5
 11
15.87516270189221
 21
18.58762023679041
 31
-0.5
  0
LINE
  5
1224
330
1F
100
AcDbEntity
  8
0
100
AcDbLine
 10
16.74118810567665
 20
17.08762023679041
 30
-0.5
 11
16.92868810567665
 21
17.08762023679041
 31
-0.5
  0
LINE
  5
1225
330
1F
100
AcDbEntity
  8
0
100
AcDbLine
 10
15.87516270189221
 20
18.08762023679041
 30
-0.5
 11
16.06266270189221
 21
18.08762023679041
 31
-0.5
  0
LINE
  5
1226
330
1F
100
AcDbEntity
  8
0
100
AcDbLine
 10
22.96875
 20
15.09374999999999
 30
-0.5
 11
22.0
 21
15.09374999999999
 31
-0.5
  0
LINE
  5
1227
330
1F
100
AcDbEntity
  8
0
100
AcDbLine
 10
19.90652999736035
 20
14.99999999999999
 30
-0.5
 11
20.03911251883283
 21
14.99999999999999
 31
-0.5
  0
LINE
  5
1228
330
1F
100
AcDbEntity
  8
0
100
AcDbLine
 10
23.0
 20
15.09374999999999
 30
-0.5
 11
19.0
 21
15.09374999999999
 31
-0.5
  0
LINE
  5
1229
330
1F
100
AcDbEntity
  8
0
100
AcDbLine
 10
15.63048116083685
 20
22.5
 30
-0.5
 11
15.56524058041842
 21
22.613
 31
-0.5
  0
LINE
  5
1230
330
1F
100
AcDbEntity
  8
0
100
AcDbLine
 10
15.56524058041842
 20
22.613
 30
-0.5
 11
15.43475941958156
 21
22.613
 31
-0.5
  0
LINE
  5
1231
330
1F
100
AcDbEntity
  8
0
100
AcDbLine
 10
15.43475941958156
 20
22.613
 30
-0.5
 11
15.36951883916314
 21
22.5
 31
-0.5
  0
LINE
  5
1232
330
1F
100
AcDbEntity
  8
0
100
AcDbLine
 10
15.36951883916314
 20
22.5
 30
-0.5
 11
15.43475941958156
 21
22.387
 31
-0.5
  0
LINE
  5
1233
330
1F
100
AcDbEntity
  8
0
100
AcDbLine
 10
15.43475941958156
 20
22.387
 30
-0.5
 11
15.56524058041842
 21
22.387
 31
-0.5
  0
LINE
  5
1234
330
1F
100
AcDbEntity
  8
0
100
AcDbLine
 10
15.56524058041842
 20
22.387
 30
-0.5
 11
15.63048116083685
 21
22.5
 31
-0.5
  0
LINE
  5
1235
330
1F
100
AcDbEntity
  8
0
100
AcDbLine
 10
15.56524058041842
 20
15.613
 30
-0.5
 11
15.43475941958156
 21
15.613
 31
-0.5
  0
LINE
  5
1236
330
1F
100
AcDbEntity
  8
0
100
AcDbLine
 10
15.43475941958156
 20
15.613
 30
-0.5
 11
15.36951883916314
 21
15.5
 31
-0.5
  0
LINE
  5
1237
330
1F
100
AcDbEntity
  8
0
100
AcDbLine
 10
15.36951883916314
 20
15.5
 30
-0.5
 11
15.43475941958156
 21
15.387
 31
-0.5
  0
LINE
  5
1238
330
1F
100
AcDbEntity
  8
0
100
AcDbLine
 10
15.43475941958156
 20
15.387
 30
-0.5
 11
15.56524058041842
 21
15.38699999999999
 31
-0.5
  0
LINE
  5
1239
330
1F
100
AcDbEntity
  8
0
100
AcDbLine
 10
15.56524058041842
 20
15.38699999999999
 30
-0.5
 11
15.63048116083685
 21
15.49999999999999
 31
-0.5
  0
LINE
  5
1240
330
1F
100
AcDbEntity
  8
0
100
AcDbLine
 10
15.63048116083685
 20
15.49999999999999
 30
-0.5
 11
15.56524058041842
 21
15.613
 31
-0.5
  0
LINE
  5
1241
330
1F
100
AcDbEntity
  8
0
100
AcDbLine
 10
22.63048116083685
 20
15.49999999999999
 30
-0.5
 11
22.56524058041843
 21
15.613
 31
-0.5
  0
LINE
  5
1242
330
1F
100
AcDbEntity
  8
0
100
AcDbLine
 10
22.56524058041843
 20
15.38699999999999
 30
-0.5
 11
22.63048116083685
 21
15.49999999999999
 31
-0.5
  0
LINE
  5
1243
330
1F
100
AcDbEntity
  8
0
100
AcDbLine
 10
22.43475941958157
 20
15.387
 30
-0.5
 11
22.56524058041843
 21
15.38699999999999
 31
-0.5
  0
LINE
  5
1244
330
1F
100
AcDbEntity
  8
0
100
AcDbLine
 10
22.36951883916315
 20
15.5
 30
-0.5
 11
22.43475941958157
 21
15.387
 31
-0.5
  0
LINE
  5
1245
330
1F
100
AcDbEntity
  8
0
100
AcDbLine
 10
22.43475941958157
 20
15.613
 30
-0.5
 11
22.36951883916315
 21
15.5
 31
-0.5
  0
LINE
  5
1246
330
1F
100
AcDbEntity
  8
0
100
AcDbLine
 10
22.56524058041843
 20
15.613
 30
-0.5
 11
22.43475941958157
 21
15.613
 31
-0.5
  0
LINE
  5
1247
330
1F
100
AcDbEntity
  8
0
100
AcDbLine
 10
22.56524058041843
 20
22.387
 30
-0.5
 11
22.63048116083685
 21
22.5
 31
-0.5
  0
LINE
  5
1248
330
1F
100
AcDbEntity
  8
0
100
AcDbLine
 10
22.63048116083685
 20
22.5
 30
-0.5
 11
22.56524058041843
 21
22.613
 31
-0.5
  0
LINE
  5
1249
330
1F
100
AcDbEntity
  8
0
100
AcDbLine
 10
22.56524058041843
 20
22.613
 30
-0.5
 11
22.43475941958157
 21
22.613
 31
-0.5
  0
LINE
  5
1250
330
1F
100
AcDbEntity
  8
0
100
AcDbLine
 10
22.43475941958157
 20
22.613
 30
-0.5
 11
22.36951883916315
 21
22.5
 31
-0.5
  0
LINE
  5
1251
330
1F
100
AcDbEntity
  8
0
100
AcDbLine
 10
22.36951883916315
 20
22.5
 30
-0.5
 11
22.43475941958157
 21
22.387
 31
-0.5
  0
LINE
  5
1252
330
1F
100
AcDbEntity
  8
0
100
AcDbLine
 10
22.43475941958157
 20
22.387
 30
-0.5
 11
22.56524058041843
 21
22.387
 31
-0.5
  0
DIMENSION
  5
10107
330
1F
100
AcDbEntity
  8
0
  6
Continuous
 62
     1
100
AcDbDimension
280
     0
  2
*D1
 10
15.03125
 20
23.83769505522007
 30
0.0
 11
19.0
 21
23.83769505522007
 31
0.0
 70
    32
 71
     5
 42
7.937499999999998
 73
     0
 74
     0
 75
     0
  3
Standard
100
AcDbAlignedDimension
 13
22.96875
 23
22.90575
 33
-0.5
 14
15.03125
 24
22.90575
 34
-0.5
100
AcDbRotatedDimension
  0
DIMENSION
  5
1011F
330
1F
100
AcDbEntity
  8
0
  6
Continuous
 62
     1
100
AcDbDimension
280
     0
  2
*D2
 10
23.96141843874479
 20
22.90575
 30
0.0
 11
23.96141843874478
 21
18.99975
 31
0.0
 70
    32
 71
     5
 42
7.812000000000006
 73
     0
 74
     0
 75
     0
  3
Standard
100
AcDbAlignedDimension
 13
22.96875
 23
15.09374999999999
 33
-0.5
 14
22.96875
 24
22.90575
 34
-0.5
 50
90.0
100
AcDbRotatedDimension
  0
DIMENSION
  5
1013C
330
1F
100
AcDbEntity
  8
0
  6
Continuous
 62
     1
100
AcDbDimension
280
     0
  2
*D3
 10
13.75073885483682
 20
15.387
 30
0.0
 11
14.3943677770742
 21
15.747
 31
0.0
 70
    32
 71
     5
 42
0.2932500000000075
 73
     0
 74
     0
 75
     0
  3
Standard
100
AcDbAlignedDimension
 13
15.03125
 23
15.09374999999999
 33
-0.5
 14
15.43475941958156
 24
15.387
 34
-0.5
 50
90.0
100
AcDbRotatedDimension
  0
DIMENSION
  5
10159
330
1F
100
AcDbEntity
  8
0
  6
Continuous
 62
     1
100
AcDbDimension
280
     0
  2
*D4
 10
13.83669486874594
 20
22.90575
 30
0.0
 11
14.48050796560814
 21
23.26575
 31
0.0
 70
    32
 71
     5
 42
0.2927499999999981
 73
     0
 74
     0
 75
     0
  3
Standard
100
AcDbAlignedDimension
 13
15.43475941958156
 23
22.613
 33
-0.5
 14
15.03125
 24
22.90575
 34
-0.5
 50
269.9999999999985
100
AcDbRotatedDimension
  0
DIMENSION
  5
10184
330
1F
100
AcDbEntity
  8
0
  6
Continuous
 62
     1
100
AcDbDimension
280
     0
  2
*D5
 10
15.03125
 20
14.05868523384976
 30
0.0
 11
14.20762107776261
 21
14.05868523384976
 31
0.0
 70
    32
 71
     5
 42
0.3382688391631454
 73
     0
 74
     0
 75
     0
  3
Standard
100
AcDbAlignedDimension
 13
15.36951883916314
 23
15.5
 33
-0.5
 14
15.03125
 24
15.5
 34
-0.5
100
AcDbRotatedDimension
  0
DIMENSION
  5
10192
330
1F
100
AcDbEntity
  8
0
  6
Continuous
 62
     1
100
AcDbDimension
280
     0
  2
*D6
 10
15.43475941958156
 20
16.2390054030721
 30
0.0
 11
14.61045519038648
 21
16.2390054030721
 31
0.0
 70
    32
 71
     5
 42
0.1304811608368563
 73
     0
 74
     0
 75
     0
  3
Standard
100
AcDbAlignedDimension
 13
15.56524058041842
 23
15.613
 33
-0.5
 14
15.43475941958156
 24
15.613
 34
-0.5
100
AcDbRotatedDimension
  0
DIMENSION
  5
101A0
330
1F
100
AcDbEntity
  8
0
  6
Continuous
 62
     1
100
AcDbDimension
280
     0
  2
*D7
 10
17.17420080756887
 20
22.52091663119614
 30
0.0
 11
16.34989657837378
 21
22.52091663119614
 31
0.0
 70
    32
 71
     5
 42
0.1875
 73
     0
 74
     0
 75
     0
  3
Standard
100
AcDbAlignedDimension
 13
17.36170080756887
 23
22.16237976320957
 33
-0.5
 14
17.17420080756887
 24
22.16237976320957
 34
-0.5
100
AcDbRotatedDimension
  0
DIMENSION
  5
101AE
330
1F
100
AcDbEntity
  8
0
  6
Continuous
 62
     1
100
AcDbDimension
280
     0
  2
*D8
 10
18.84556863150132
 20
22.55727375239645
 30
0.0
 11
19.80004582597696
 21
22.37727375239646
 31
0.0
 70
   160
 71
     5
 42
0.1752404735808373
 73
     0
 74
     0
 75
     0
  3
Standard
100
AcDbAlignedDimension
 13
18.32147621135332
 23
22.0
 33
-0.5
 14
18.47323891324553
 24
21.91237976320957
 34
-0.5
 50
150.0000000000021
100
AcDbRotatedDimension
  0
DIMENSION
  5
101C8
330
1F
100
AcDbEntity
  8
0
  6
Continuous
 62
     1
100
AcDbDimension
280
     0
  2
*D9
 10
20.42988446146607
 20
15.09374999999999
 30
0.0
 11
19.78607136460386
 21
14.91374999999999
 31
0.0
 70
    32
 71
     5
 42
0.7438702367904213
 73
     0
 74
     0
 75
     0
  3
Standard
100
AcDbAlignedDimension
 13
20.63830242270664
 23
15.83762023679041
 33
-0.5
 14
20.42988446146607
 24
15.09374999999999
 34
-0.5
 50
90.0
100
AcDbRotatedDimension
  0
DIMENSION
  5
101D7
330
1F
100
AcDbEntity
  8
0
  6
Continuous
 62
     1
100
AcDbDimension
280
     0
  2
*D10
 10
15.03125
 20
21.05292147085005
 30
0.0
 11
14.38854195088676
 21
21.05292147085005
 31
0.0
 70
    32
 71
     5
 42
0.7501627018922151
 73
     0
 74
     0
 75
     0
  3
Standard
100
AcDbAlignedDimension
 13
15.78141270189221
 23
21.25
 33
-0.5
 14
15.03125
 24
21.25
 34
-0.5
100
AcDbRotatedDimension
  0
DIMENSION
  5
101E5
330
1F
100
AcDbEntity
  8
0
  6
Continuous
 62
     1
100
AcDbDimension
280
     0
  2
*D11
 10
21.11251899329507
 20
22.90575
 30
0.0
 11
21.75577956628279
 21
23.08575000000001
 31
0.0
 70
    32
 71
     5
 42
0.7433702367904296
 73
     0
 74
     0
 75
     0
  3
Standard
100
AcDbAlignedDimension
 13
20.82580242270664
 23
22.16237976320957
 33
-0.5
 14
21.11251899329507
 24
22.90575
 34
-0.5
 50
270.0
100
AcDbRotatedDimension
  0
ENDSEC
  0
SECTION
  2
OBJECTS
  0
DICTIONARY
  5
C
330
0
100
AcDbDictionary
281
     1
  3
ACAD_CIP_PREVIOUS_PRODUCT_INFO
350
1005A
  3
ACAD_COLOR
350
10036
  3
ACAD_DETAILVIEWSTYLE
350
10051
  3
ACAD_GROUP
350
D
  3
ACAD_IMAGE_VARS
350
102C1
  3
ACAD_LAYOUT
350
10037
  3
ACAD_MATERIAL
350
10004
  3
ACAD_MLEADERSTYLE
350
1004D
  3
ACAD_MLINESTYLE
350
17
  3
ACAD_PLOTSETTINGS
350
10054
  3
ACAD_PLOTSTYLENAME
350
10002
  3
ACAD_SCALELIST
350
1003B
  3
ACAD_SECTIONVIEWSTYLE
350
1004F
  3
ACAD_TABLESTYLE
350
10038
  3
ACAD_VISUALSTYLE
350
1001D
  3
ACDB_RECOMPOSE_DATA
350
10380
  3
AcDbVariableDictionary
350
10374
  0
DICTIONARY
  5
102A9
330
2
100
AcDbDictionary
280
     1
281
     1
  3
ACAD_LAYERSTATES
360
102AA
  0
DICTIONARY
  5
102A4
330
50
100
AcDbDictionary
280
     1
281
     1
  3
ADSK_XREC_LAYER_RECONCILED
360
102A5
  0
XRECORD
  5
1005A
102
{ACAD_REACTORS
330
C
102
}
330
C
100
AcDbXrecord
280
     1
300
ACDMAC
300
2021
300
ACDMAC_F_S_TL
  0
DICTIONARY
  5
10036
102
{ACAD_REACTORS
330
C
102
}
330
C
100
AcDbDictionary
281
     1
  0
DICTIONARY
  5
10051
102
{ACAD_REACTORS
330
C
102
}
330
C
100
AcDbDictionary
281
     1
  3
Imperial24
350
10052
  0
DICTIONARY
  5
D
330
C
100
AcDbDictionary
281
     1
  0
RASTERVARIABLES
  5
102C1
102
{ACAD_REACTORS
330
C
102
}
330
C
100
AcDbRasterVariables
 90
        0
 70
     1
 71
     1
 72
     5
  0
DICTIONARY
  5
10037
102
{ACAD_REACTORS
330
C
102
}
330
C
100
AcDbDictionary
281
     1
  3
Layout1
350
10056
  3
Model
350
10055
  0
DICTIONARY
  5
10004
102
{ACAD_REACTORS
330
C
102
}
330
C
100
AcDbDictionary
281
     1
  3
ByBlock
350
1000D
  3
ByLayer
350
10005
  3
Global
350
10015
  0
DICTIONARY
  5
1004D
102
{ACAD_REACTORS
330
C
102
}
330
C
100
AcDbDictionary
281
     1
  3
Standard
350
1004E
  0
DICTIONARY
  5
17
330
C
100
AcDbDictionary
281
     1
  3
Standard
350
1003A
  0
DICTIONARY
  5
10054
102
{ACAD_REACTORS
330
C
102
}
330
C
100
AcDbDictionary
281
     1
  0
ACDBDICTIONARYWDFLT
  5
10002
102
{ACAD_REACTORS
330
C
102
}
330
C
100
AcDbDictionary
281
     1
  3
Normal
350
10003
100
AcDbDictionaryWithDefault
340
10003
  0
DICTIONARY
  5
1003B
102
{ACAD_REACTORS
330
C
102
}
330
C
100
AcDbDictionary
281
     1
  3
A0
350
1003C
  3
A1
350
1003D
  3
A2
350
1003E
  3
A3
350
1003F
  3
A4
350
10040
  3
A5
350
10041
  3
A6
350
10042
  3
A7
350
10043
  3
A8
350
10044
  3
A9
350
10045
  3
B0
350
10046
  3
B1
350
10047
  3
B2
350
10048
  3
B3
350
10049
  3
B4
350
1004A
  3
B5
350
1004B
  3
B6
350
1004C
  0
DICTIONARY
  5
1004F
102
{ACAD_REACTORS
330
C
102
}
330
C
100
AcDbDictionary
281
     1
  3
Imperial24
350
10050
  0
DICTIONARY
  5
10038
102
{ACAD_REACTORS
330
C
102
}
330
C
100
AcDbDictionary
281
     1
  3
Standard
350
10039
  0
DICTIONARY
  5
1001D
102
{ACAD_REACTORS
330
C
102
}
330
C
100
AcDbDictionary
281
     1
  3
2dWireframe
350
10023
  3
Basic
350
10022
  3
Brighten
350
10029
  3
ColorChange
350
1002D
  3
Conceptual
350
10026
  3
Dim
350
10028
  3
EdgeColorOff
350
10035
  3
Facepattern
350
1002C
  3
Flat
350
1001E
  3
FlatWithEdges
350
1001F
  3
Gouraud
350
10020
  3
GouraudWithEdges
350
10021
  3
Hidden
350
10025
  3
JitterOff
350
10033
  3
Linepattern
350
1002B
  3
OverhangOff
350
10034
  3
Realistic
350
10027
  3
Shaded
350
10032
  3
Shaded with edges
350
10031
  3
Shades of Gray
350
1002E
  3
Sketchy
350
1002F
  3
Thicken
350
1002A
  3
Wireframe
350
10024
  3
X-Ray
350
10030
  0
XRECORD
  5
10380
102
{ACAD_REACTORS
330
C
102
}
330
C
100
AcDbXrecord
280
     1
 90
        1
330
10039
  0
DICTIONARY
  5
10374
102
{ACAD_REACTORS
330
C
102
}
330
C
100
AcDbDictionary
281
     1
  3
CANNOSCALE
350
1037A
  3
CMLEADERSTYLE
350
10376
  3
CTABLESTYLE
350
10375
  3
CVIEWDETAILSTYLE
350
10377
  3
CVIEWSECTIONSTYLE
350
10378
  3
LAYEREVAL
350
1037C
  3
LAYERNOTIFY
350
1037D
  3
LIGHTINGUNITS
350
1037B
  3
MSLTSCALE
350
10379
  0
DICTIONARY
  5
102AA
102
{ACAD_REACTORS
330
102A9
102
}
330
102A9
100
AcDbDictionary
281
     1
  0
XRECORD
  5
102A5
102
{ACAD_REACTORS
330
102A4
102
}
330
102A4
100
AcDbXrecord
280
     1
290
     1
  0
ACDBDETAILVIEWSTYLE
  5
10052
102
{ACAD_REACTORS
330
10051
102
}
330
10051
100
AcDbModelDocViewStyle
 70
     0
  3
Imperial24
290
     0
300
Imperial24
 90
        0
100
AcDbDetailViewStyle
 70
     0
 71
     0
 90
        3
 71
     1
340
11
 62
   256
 40
0.24
340
0
 62
   256
 40
0.24
300

 40
0.36
280
     3
 71
     2
340
0
 90
       25
 62
   256
 71
     3
340
11
 62
   256
 40
0.24
 90
        1
 40
0.75
 90
        1
300
%<\AcVar ViewType \f "%tc1">% %<\AcVar ViewDetailId>%\PSCALE %<\AcVar ViewScale \f "%sn">%
 71
     4
340
0
 90
       25
 62
   256
340
0
 90
       25
 62
   256
280
     0
  0
LAYOUT
  5
10056
102
{ACAD_REACTORS
330
10037
102
}
330
10037
100
AcDbPlotSettings
  1

  2

  4

  6

 40
0.0
 41
0.0
 42
0.0
 43
0.0
 44
0.0
 45
0.0
 46
0.0
 47
0.0
 48
0.0
 49
0.0
140
0.0
141
0.0
142
1.0
143
1.0
 70
   688
 72
     0
 73
     0
 74
     5
  7
Grayscale.ctb
 75
    16
147
1.0
 76
     0
 77
     2
 78
   300
148
0.0
149
0.0
100
AcDbLayout
  1
Layout1
 70
     1
 71
     1
 10
0.0
 20
0.0
 11
12.0
 21
9.0
 12
0.0
 22
0.0
 32
0.0
 14
1.000000000000000E+20
 24
1.000000000000000E+20
 34
1.000000000000000E+20
 15
-1.000000000000000E+20
 25
-1.000000000000000E+20
 35
-1.000000000000000E+20
146
0.0
 13
0.0
 23
0.0
 33
0.0
 16
1.0
 26
0.0
 36
0.0
 17
0.0
 27
1.0
 37
0.0
 76
     0
330
1B
  0
LAYOUT
  5
10055
102
{ACAD_REACTORS
330
10037
102
}
330
10037
100
AcDbPlotSettings
  1

  2
none_device
  4
Letter_(8.50_x_11.00_Inches)
  6

 40
6.349999904632568
 41
6.349999904632568
 42
6.350006103515625
 43
6.350006103515625
 44
215.8999938964844
 45
279.3999938964844
 46
0.0
 47
0.0
 48
0.0
 49
0.0
140
0.0
141
0.0
142
1.0
143
1.697665934953047
 70
 11952
 72
     0
 73
     1
 74
     0
  7
Grayscale.ctb
 75
     0
147
0.5890440394727348
 76
     0
 77
     2
 78
   300
148
-369.4098670781172
149
-314.5762670692795
100
AcDbLayout
  1
Model
 70
     1
 71
     0
 10
0.0
 20
0.0
 11
12.0
 21
9.0
 12
0.0
 22
0.0
 32
0.0
 14
0.0
 24
0.0
 34
0.0
 15
0.0
 25
0.0
 35
0.0
146
0.0
 13
0.0
 23
0.0
 33
0.0
 16
1.0
 26
0.0
 36
0.0
 17
0.0
 27
1.0
 37
0.0
 76
     0
330
1F
331
10059
1001
ACAD_PSEXT
1000
None
1000
None
1000
Not applicable
1000
The layout will not be plotted unless a new plotter configuration name is selected.
1070
     0
  0
MATERIAL
  5
1000D
102
{ACAD_XDICTIONARY
360
1000E
102
}
102
{ACAD_REACTORS
330
10004
102
}
330
10004
100
AcDbMaterial
  1
ByBlock
 72
     0
 43
0.0208333333333333
 43
0.0
 43
0.0
 43
0.0
 43
0.0
 43
0.0208333333333333
 43
0.0
 43
0.0
 43
0.0
 43
0.0
 43
1.0
 43
0.0
 43
0.0
 43
0.0
 43
0.0
 43
1.0
 77
     0
 47
0.0208333333333333
 47
0.0
 47
0.0
 47
0.0
 47
0.0
 47
0.0208333333333333
 47
0.0
 47
0.0
 47
0.0
 47
0.0
 47
1.0
 47
0.0
 47
0.0
 47
0.0
 47
0.0
 47
1.0
171
     0
 49
0.0208333333333333
 49
0.0
 49
0.0
 49
0.0
 49
0.0
 49
0.0208333333333333
 49
0.0
 49
0.0
 49
0.0
 49
0.0
 49
1.0
 49
0.0
 49
0.0
 49
0.0
 49
0.0
 49
1.0
175
     0
142
0.0208333333333333
142
0.0
142
0.0
142
0.0
142
0.0
142
0.0208333333333333
142
0.0
142
0.0
142
0.0
142
0.0
142
1.0
142
0.0
142
0.0
142
0.0
142
0.0
142
1.0
179
     0
144
0.0208333333333333
144
0.0
144
0.0
144
0.0
144
0.0
144
0.0208333333333333
144
0.0
144
0.0
144
0.0
144
0.0
144
1.0
144
0.0
144
0.0
144
0.0
144
0.0
144
1.0
147
0.0208333333333333
147
0.0
147
0.0
147
0.0
147
0.0
147
0.0208333333333333
147
0.0
147
0.0
147
0.0
147
0.0
147
1.0
147
0.0
147
0.0
147
0.0
147
0.0
147
1.0
  0
MATERIAL
  5
10005
102
{ACAD_XDICTIONARY
360
10006
102
}
102
{ACAD_REACTORS
330
10004
102
}
330
10004
100
AcDbMaterial
  1
ByLayer
 72
     0
 43
0.0208333333333333
 43
0.0
 43
0.0
 43
0.0
 43
0.0
 43
0.0208333333333333
 43
0.0
 43
0.0
 43
0.0
 43
0.0
 43
1.0
 43
0.0
 43
0.0
 43
0.0
 43
0.0
 43
1.0
 77
     0
 47
0.0208333333333333
 47
0.0
 47
0.0
 47
0.0
 47
0.0
 47
0.0208333333333333
 47
0.0
 47
0.0
 47
0.0
 47
0.0
 47
1.0
 47
0.0
 47
0.0
 47
0.0
 47
0.0
 47
1.0
171
     0
 49
0.0208333333333333
 49
0.0
 49
0.0
 49
0.0
 49
0.0
 49
0.0208333333333333
 49
0.0
 49
0.0
 49
0.0
 49
0.0
 49
1.0
 49
0.0
 49
0.0
 49
0.0
 49
0.0
 49
1.0
175
     0
142
0.0208333333333333
142
0.0
142
0.0
142
0.0
142
0.0
142
0.0208333333333333
142
0.0
142
0.0
142
0.0
142
0.0
142
1.0
142
0.0
142
0.0
142
0.0
142
0.0
142
1.0
179
     0
144
0.0208333333333333
144
0.0
144
0.0
144
0.0
144
0.0
144
0.0208333333333333
144
0.0
144
0.0
144
0.0
144
0.0
144
1.0
144
0.0
144
0.0
144
0.0
144
0.0
144
1.0
147
0.0208333333333333
147
0.0
147
0.0
147
0.0
147
0.0
147
0.0208333333333333
147
0.0
147
0.0
147
0.0
147
0.0
147
1.0
147
0.0
147
0.0
147
0.0
147
0.0
147
1.0
  0
MATERIAL
  5
10015
102
{ACAD_XDICTIONARY
360
10016
102
}
102
{ACAD_REACTORS
330
10004
102
}
330
10004
100
AcDbMaterial
  1
Global
 72
     0
 43
0.0208333333333333
 43
0.0
 43
0.0
 43
0.0
 43
0.0
 43
0.0208333333333333
 43
0.0
 43
0.0
 43
0.0
 43
0.0
 43
1.0
 43
0.0
 43
0.0
 43
0.0
 43
0.0
 43
1.0
 77
     0
 47
0.0208333333333333
 47
0.0
 47
0.0
 47
0.0
 47
0.0
 47
0.0208333333333333
 47
0.0
 47
0.0
 47
0.0
 47
0.0
 47
1.0
 47
0.0
 47
0.0
 47
0.0
 47
0.0
 47
1.0
171
     0
 49
0.0208333333333333
 49
0.0
 49
0.0
 49
0.0
 49
0.0
 49
0.0208333333333333
 49
0.0
 49
0.0
 49
0.0
 49
0.0
 49
1.0
 49
0.0
 49
0.0
 49
0.0
 49
0.0
 49
1.0
175
     0
142
0.0208333333333333
142
0.0
142
0.0
142
0.0
142
0.0
142
0.0208333333333333
142
0.0
142
0.0
142
0.0
142
0.0
142
1.0
142
0.0
142
0.0
142
0.0
142
0.0
142
1.0
179
     0
144
0.0208333333333333
144
0.0
144
0.0
144
0.0
144
0.0
144
0.0208333333333333
144
0.0
144
0.0
144
0.0
144
0.0
144
1.0
144
0.0
144
0.0
144
0.0
144
0.0
144
1.0
147
0.0208333333333333
147
0.0
147
0.0
147
0.0
147
0.0
147
0.0208333333333333
147
0.0
147
0.0
147
0.0
147
0.0
147
1.0
147
0.0
147
0.0
147
0.0
147
0.0
147
1.0
  0
MLEADERSTYLE
  5
1004E
102
{ACAD_REACTORS
330
1004D
102
}
330
1004D
100
AcDbMLeaderStyle
179
     2
170
     2
171
     1
172
     0
 90
        2
 40
0.0
 41
0.0
173
     1
 91
-1056964608
340
14
 92
       -2
290
     1
 42
0.09
291
     1
 43
0.36
  3
Standard
 44
0.18
300

342
11
174
     1
178
     6
175
     1
176
     0
 93
-1056964608
 45
0.18
292
     0
297
     0
 46
0.18
 94
-1056964608
 47
1.0
 49
1.0
140
1.0
293
     1
141
0.0
294
     1
177
     0
142
1.0
295
     0
296
     0
143
0.125
271
     0
272
     9
273
     9
298
     0
  0
MLINESTYLE
  5
1003A
102
{ACAD_REACTORS
330
17
102
}
330
17
100
AcDbMlineStyle
  2
STANDARD
 70
     0
  3

 62
   256
 51
90.0
 52
90.0
 71
     2
 49
0.5
 62
   256
  6
BYLAYER
 49
-0.5
 62
   256
  6
BYLAYER
  0
ACDBPLACEHOLDER
  5
10003
102
{ACAD_REACTORS
330
10002
102
}
330
10002
  0
SCALE
  5
1003C
102
{ACAD_REACTORS
330
1003B
102
}
330
1003B
100
AcDbScale
 70
     0
300
1:1
140
1.0
141
1.0
290
     1
  0
SCALE
  5
1003D
102
{ACAD_REACTORS
330
1003B
102
}
330
1003B
100
AcDbScale
 70
     0
300
1/128" = 1'-0"
140
0.0078125
141
12.0
290
     0
  0
SCALE
  5
1003E
102
{ACAD_REACTORS
330
1003B
102
}
330
1003B
100
AcDbScale
 70
     0
300
1/64" = 1'-0"
140
0.015625
141
12.0
290
     0
  0
SCALE
  5
1003F
102
{ACAD_REACTORS
330
1003B
102
}
330
1003B
100
AcDbScale
 70
     0
300
1/32" = 1'-0"
140
0.03125
141
12.0
290
     0
  0
SCALE
  5
10040
102
{ACAD_REACTORS
330
1003B
102
}
330
1003B
100
AcDbScale
 70
     0
300
1/16" = 1'-0"
140
0.0625
141
12.0
290
     0
  0
SCALE
  5
10041
102
{ACAD_REACTORS
330
1003B
102
}
330
1003B
100
AcDbScale
 70
     0
300
3/32" = 1'-0"
140
0.09375
141
12.0
290
     0
  0
SCALE
  5
10042
102
{ACAD_REACTORS
330
1003B
102
}
330
1003B
100
AcDbScale
 70
     0
300
1/8" = 1'-0"
140
0.125
141
12.0
290
     0
  0
SCALE
  5
10043
102
{ACAD_REACTORS
330
1003B
102
}
330
1003B
100
AcDbScale
 70
     0
300
3/16" = 1'-0"
140
0.1875
141
12.0
290
     0
  0
SCALE
  5
10044
102
{ACAD_REACTORS
330
1003B
102
}
330
1003B
100
AcDbScale
 70
     0
300
1/4" = 1'-0"
140
0.25
141
12.0
290
     0
  0
SCALE
  5
10045
102
{ACAD_REACTORS
330
1003B
102
}
330
1003B
100
AcDbScale
 70
     0
300
3/8" = 1'-0"
140
0.375
141
12.0
290
     0
  0
SCALE
  5
10046
102
{ACAD_REACTORS
330
1003B
102
}
330
1003B
100
AcDbScale
 70
     0
300
1/2" = 1'-0"
140
0.5
141
12.0
290
     0
  0
SCALE
  5
10047
102
{ACAD_REACTORS
330
1003B
102
}
330
1003B
100
AcDbScale
 70
     0
300
3/4" = 1'-0"
140
0.75
141
12.0
290
     0
  0
SCALE
  5
10048
102
{ACAD_REACTORS
330
1003B
102
}
330
1003B
100
AcDbScale
 70
     0
300
1" = 1'-0"
140
1.0
141
12.0
290
     0
  0
SCALE
  5
10049
102
{ACAD_REACTORS
330
1003B
102
}
330
1003B
100
AcDbScale
 70
     0
300
1-1/2" = 1'-0"
140
1.5
141
12.0
290
     0
  0
SCALE
  5
1004A
102
{ACAD_REACTORS
330
1003B
102
}
330
1003B
100
AcDbScale
 70
     0
300
3" = 1'-0"
140
3.0
141
12.0
290
     0
  0
SCALE
  5
1004B
102
{ACAD_REACTORS
330
1003B
102
}
330
1003B
100
AcDbScale
 70
     0
300
6" = 1'-0"
140
6.0
141
12.0
290
     0
  0
SCALE
  5
1004C
102
{ACAD_REACTORS
330
1003B
102
}
330
1003B
100
AcDbScale
 70
     0
300
1'-0" = 1'-0"
140
12.0
141
12.0
290
     0
  0
ACDBSECTIONVIEWSTYLE
  5
10050
102
{ACAD_REACTORS
330
1004F
102
}
330
1004F
100
AcDbModelDocViewStyle
 70
     0
  3
Imperial24
290
     0
300
Imperial24
 90
        0
100
AcDbSectionViewStyle
 70
     0
 71
     0
 90
       78
 71
     1
340
11
 62
   256
 40
0.24
340
0
340
0
 62
   256
 40
0.24
300
I, O, Q, S, X, Z
 40
0.48
 90
        3
 40
0.18
 90
        1
 71
     2
340
0
 90
       25
 62
   256
340
0
 90
       50
 62
   256
 40
0.24
 40
0.0
 40
0.24
 71
     3
340
11
 62
   256
 40
0.24
 90
        1
 40
0.75
 90
        1
300
%<\AcVar ViewType \f "%tc1">% %<\AcVar ViewSectionStartId>%-%<\AcVar ViewSectionEndId>%\PSCALE %<\AcVar ViewScale \f "%sn">%
 71
     4
 62
   256
 62
   257
300
ANSI31
 40
1.0
 90
        0
290
     0
290
     0
 90
        6
 40
0.0
 40
1.570796326794896
 40
0.2617993877991494
 40
1.308996938995747
 40
-0.2617993877991494
 40
1.832595714594046
  0
TABLESTYLE
  5
10039
102
{ACAD_XDICTIONARY
360
1037E
102
}
102
{ACAD_REACTORS
330
10038
102
}
330
10038
100
AcDbTableStyle
280
     0
  3
Standard
 70
     0
 71
     0
 40
0.06
 41
0.06
280
     0
281
     0
  7
STANDARD
140
0.18
170
     2
 62
     0
 63
     7
283
     0
 90
      512
 91
        0
  1

274
    -2
284
     1
 64
     0
275
    -2
285
     1
 65
     0
276
    -2
286
     1
 66
     0
277
    -2
287
     1
 67
     0
278
    -2
288
     1
 68
     0
279
    -2
289
     1
 69
     0
  7
STANDARD
140
0.25
170
     5
 62
     0
 63
     7
283
     0
 90
      512
 91
        0
  1

274
    -2
284
     1
 64
     0
275
    -2
285
     1
 65
     0
276
    -2
286
     1
 66
     0
277
    -2
287
     1
 67
     0
278
    -2
288
     1
 68
     0
279
    -2
289
     1
 69
     0
  7
STANDARD
140
0.18
170
     5
 62
     0
 63
     7
283
     0
 90
      512
 91
        0
  1

274
    -2
284
     1
 64
     0
275
    -2
285
     1
 65
     0
276
    -2
286
     1
 66
     0
277
    -2
287
     1
 67
     0
278
    -2
288
     1
 68
     0
279
    -2
289
     1
 69
     0
  0
VISUALSTYLE
  5
10023
102
{ACAD_REACTORS
330
1001D
102
}
330
1001D
100
AcDbVisualStyle
  2
2dWireframe
 70
     4
177
     3
291
     0
 70
    58
 90
        0
176
     1
 90
        2
176
     1
 90
        0
176
     1
 90
        0
176
     1
 40
0.6
176
     1
 40
30.0
176
     1
 62
     7
420
 16777215
176
     1
 90
        1
176
     1
 90
        4
176
     1
 62
     7
176
     1
 62
   257
176
     1
 90
        1
176
     1
 90
        1
176
     1
 40
1.0
176
     1
 90
        0
176
     1
 62
   257
176
     1
 40
1.0
176
     1
 90
        1
176
     1
 90
        6
176
     1
 90
        2
176
     1
 62
     7
176
     1
 90
        5
176
     1
 90
        0
176
     1
 90
        0
176
     1
290
     0
176
     1
 90
        1
176
     1
 40
0.0
176
     1
 90
        0
176
     1
290
     1
176
     1
290
     1
176
     1
290
     0
176
     1
290
     0
176
     1
290
     0
176
     1
290
     0
176
     1
290
     0
176
     1
290
     0
176
     1
290
     0
176
     1
 90
       50
176
     1
 40
0.0
176
     1
 40
1.0
176
     1
 90
        0
176
     1
 62
    18
420
        0
176
     1
 90
       50
176
     1
 90
        3
176
     1
 62
     5
420
      255
176
     1
290
     0
176
     1
 90
       50
176
     1
 90
       50
176
     1
 90
       50
176
     1
290
     0
176
     1
 90
       50
176
     1
 62
   256
176
     0
 40
1.0
176
     0
 90
        2
176
     1
  1
strokes_ogs.tif
176
     1
290
     0
176
     1
 40
1.0
176
     1
 40
1.0
176
     1
  0
VISUALSTYLE
  5
10022
102
{ACAD_REACTORS
330
1001D
102
}
330
1001D
100
AcDbVisualStyle
  2
Basic
 70
     7
177
     3
291
     1
 70
    58
 90
        1
176
     1
 90
        0
176
     1
 90
        1
176
     1
 90
        0
176
     1
 40
0.6
176
     1
 40
30.0
176
     1
 62
     7
420
 16777215
176
     1
 90
        0
176
     1
 90
        4
176
     1
 62
     7
176
     1
 62
   257
176
     1
 90
        1
176
     1
 90
        1
176
     1
 40
1.0
176
     1
 90
        8
176
     1
 62
     7
176
     1
 40
1.0
176
     1
 90
        1
176
     1
 90
        6
176
     1
 90
        2
176
     1
 62
     7
176
     1
 90
        5
176
     1
 90
        0
176
     1
 90
        0
176
     1
290
     0
176
     1
 90
        1
176
     1
 40
0.0
176
     1
 90
        0
176
     1
290
     0
176
     1
290
     1
176
     1
290
     1
176
     1
290
     0
176
     1
290
     0
176
     1
290
     0
176
     1
290
     0
176
     1
290
     0
176
     1
290
     0
176
     1
 90
       50
176
     1
 40
0.0
176
     1
 40
1.0
176
     1
 90
        0
176
     1
 62
    18
420
        0
176
     1
 90
       50
176
     1
 90
        3
176
     1
 62
     5
420
      255
176
     1
290
     0
176
     1
 90
       50
176
     1
 90
       50
176
     1
 90
       50
176
     1
290
     0
176
     1
 90
       50
176
     1
 62
   256
176
     0
 40
1.0
176
     0
 90
        2
176
     1
  1
strokes_ogs.tif
176
     1
290
     0
176
     1
 40
1.0
176
     1
 40
1.0
176
     1
  0
VISUALSTYLE
  5
10029
102
{ACAD_REACTORS
330
1001D
102
}
330
1001D
100
AcDbVisualStyle
  2
Brighten
 70
    12
177
     3
291
     1
 70
    58
 90
        2
176
     1
 90
        2
176
     1
 90
        0
176
     1
 90
        0
176
     1
 40
0.6
176
     1
 40
30.0
176
     1
 62
     7
420
 16777215
176
     1
 90
        1
176
     1
 90
        4
176
     1
 62
     7
176
     1
 62
   257
176
     1
 90
        1
176
     1
 90
        1
176
     1
 40
1.0
176
     1
 90
        8
176
     1
 62
     7
176
     1
 40
1.0
176
     1
 90
        1
176
     1
 90
        6
176
     1
 90
        2
176
     1
 62
     7
176
     1
 90
        5
176
     1
 90
        0
176
     1
 90
        0
176
     1
290
     0
176
     1
 90
        1
176
     1
 40
50.0
176
     1
 90
        0
176
     1
290
     0
176
     1
290
     1
176
     1
290
     1
176
     1
290
     0
176
     1
290
     0
176
     1
290
     0
176
     1
290
     0
176
     1
290
     0
176
     1
290
     0
176
     1
 90
       50
176
     1
 40
0.0
176
     1
 40
1.0
176
     1
 90
        0
176
     1
 62
    18
420
        0
176
     1
 90
       50
176
     1
 90
        3
176
     1
 62
     5
420
      255
176
     1
290
     0
176
     1
 90
       50
176
     1
 90
       50
176
     1
 90
       50
176
     1
290
     0
176
     1
 90
       50
176
     1
 62
   256
176
     0
 40
1.0
176
     0
 90
        2
176
     1
  1
strokes_ogs.tif
176
     1
290
     0
176
     1
 40
1.0
176
     1
 40
1.0
176
     1
  0
VISUALSTYLE
  5
1002D
102
{ACAD_REACTORS
330
1001D
102
}
330
1001D
100
AcDbVisualStyle
  2
ColorChange
 70
    16
177
     3
291
     1
 70
    58
 90
        2
176
     1
 90
        2
176
     1
 90
        3
176
     1
 90
        0
176
     1
 40
0.6
176
     1
 40
30.0
176
     1
 62
     8
420
  8421504
176
     1
 90
        1
176
     1
 90
        4
176
     1
 62
     7
176
     1
 62
   257
176
     1
 90
        1
176
     1
 90
        1
176
     1
 40
1.0
176
     1
 90
        8
176
     1
 62
     8
420
  8421504
176
     1
 40
1.0
176
     1
 90
        1
176
     1
 90
        6
176
     1
 90
        2
176
     1
 62
     7
176
     1
 90
        5
176
     1
 90
        0
176
     1
 90
        0
176
     1
290
     0
176
     1
 90
        1
176
     1
 40
0.0
176
     1
 90
        0
176
     1
290
     0
176
     1
290
     1
176
     1
290
     1
176
     1
290
     0
176
     1
290
     0
176
     1
290
     0
176
     1
290
     0
176
     1
290
     0
176
     1
290
     0
176
     1
 90
       50
176
     1
 40
0.0
176
     1
 40
1.0
176
     1
 90
        0
176
     1
 62
    18
420
        0
176
     1
 90
       50
176
     1
 90
        3
176
     1
 62
     5
420
      255
176
     1
290
     0
176
     1
 90
       50
176
     1
 90
       50
176
     1
 90
       50
176
     1
290
     0
176
     1
 90
       50
176
     1
 62
   256
176
     0
 40
1.0
176
     0
 90
        2
176
     1
  1
strokes_ogs.tif
176
     1
290
     0
176
     1
 40
1.0
176
     1
 40
1.0
176
     1
  0
VISUALSTYLE
  5
10026
102
{ACAD_REACTORS
330
1001D
102
}
330
1001D
100
AcDbVisualStyle
  2
Conceptual
 70
     9
177
     3
291
     0
 70
    58
 90
        3
176
     1
 90
        2
176
     1
 90
        0
176
     1
 90
        0
176
     1
 40
0.6
176
     1
 40
30.0
176
     1
 62
     7
420
 16777215
176
     1
 90
        2
176
     1
 90
        2
176
     1
 62
     7
176
     1
 62
   257
176
     1
 90
        1
176
     1
 90
        1
176
     1
 40
179.0
176
     1
 90
        8
176
     1
 62
     7
176
     1
 40
1.0
176
     1
 90
        1
176
     1
 90
        6
176
     1
 90
        2
176
     1
 62
     7
176
     1
 90
        3
176
     1
 90
        0
176
     1
 90
        0
176
     1
290
     0
176
     1
 90
        1
176
     1
 40
0.0
176
     1
 90
        0
176
     1
290
     0
176
     1
290
     1
176
     1
290
     1
176
     1
290
     0
176
     1
290
     0
176
     1
290
     0
176
     1
290
     0
176
     1
290
     0
176
     1
290
     0
176
     1
 90
       50
176
     1
 40
0.0
176
     1
 40
1.0
176
     1
 90
        0
176
     1
 62
    18
420
        0
176
     1
 90
       50
176
     1
 90
        3
176
     1
 62
     5
420
      255
176
     1
290
     0
176
     1
 90
       50
176
     1
 90
       50
176
     1
 90
       50
176
     1
290
     0
176
     1
 90
       50
176
     1
 62
   256
176
     0
 40
1.0
176
     0
 90
        2
176
     1
  1
strokes_ogs.tif
176
     1
290
     0
176
     1
 40
1.0
176
     1
 40
1.0
176
     1
  0
VISUALSTYLE
  5
10028
102
{ACAD_REACTORS
330
1001D
102
}
330
1001D
100
AcDbVisualStyle
  2
Dim
 70
    11
177
     3
291
     1
 70
    58
 90
        2
176
     1
 90
        2
176
     1
 90
        0
176
     1
 90
        0
176
     1
 40
0.6
176
     1
 40
30.0
176
     1
 62
     7
420
 16777215
176
     1
 90
        1
176
     1
 90
        4
176
     1
 62
     7
176
     1
 62
   257
176
     1
 90
        1
176
     1
 90
        1
176
     1
 40
1.0
176
     1
 90
        8
176
     1
 62
     7
176
     1
 40
1.0
176
     1
 90
        1
176
     1
 90
        6
176
     1
 90
        2
176
     1
 62
     7
176
     1
 90
        5
176
     1
 90
        0
176
     1
 90
        0
176
     1
290
     0
176
     1
 90
        1
176
     1
 40
-50.0
176
     1
 90
        0
176
     1
290
     0
176
     1
290
     1
176
     1
290
     1
176
     1
290
     0
176
     1
290
     0
176
     1
290
     0
176
     1
290
     0
176
     1
290
     0
176
     1
290
     0
176
     1
 90
       50
176
     1
 40
0.0
176
     1
 40
1.0
176
     1
 90
        0
176
     1
 62
    18
420
        0
176
     1
 90
       50
176
     1
 90
        3
176
     1
 62
     5
420
      255
176
     1
290
     0
176
     1
 90
       50
176
     1
 90
       50
176
     1
 90
       50
176
     1
290
     0
176
     1
 90
       50
176
     1
 62
   256
176
     0
 40
1.0
176
     0
 90
        2
176
     1
  1
strokes_ogs.tif
176
     1
290
     0
176
     1
 40
1.0
176
     1
 40
1.0
176
     1
  0
VISUALSTYLE
  5
10035
102
{ACAD_REACTORS
330
1001D
102
}
330
1001D
100
AcDbVisualStyle
  2
EdgeColorOff
 70
    22
177
     3
291
     1
 70
    58
 90
        2
176
     0
 90
        2
176
     0
 90
        0
176
     0
 90
        0
176
     0
 40
0.6
176
     0
 40
30.0
176
     0
 62
     7
420
 16777215
176
     0
 90
        1
176
     0
 90
        4
176
     0
 62
     7
176
     0
 62
   257
176
     0
 90
        1
176
     0
 90
        1
176
     0
 40
1.0
176
     0
 90
        8
176
     2
 62
     7
176
     0
 40
1.0
176
     0
 90
        1
176
     0
 90
        6
176
     0
 90
        2
176
     0
 62
     7
176
     0
 90
        5
176
     0
 90
        0
176
     0
 90
        0
176
     0
290
     0
176
     0
 90
        1
176
     0
 40
0.0
176
     0
 90
        0
176
     0
290
     0
176
     1
290
     1
176
     1
290
     1
176
     1
290
     0
176
     1
290
     0
176
     1
290
     0
176
     1
290
     0
176
     1
290
     0
176
     1
290
     0
176
     1
 90
       50
176
     0
 40
0.0
176
     0
 40
1.0
176
     0
 90
        0
176
     0
 62
    18
420
        0
176
     0
 90
       50
176
     0
 90
        3
176
     0
 62
     5
420
      255
176
     0
290
     0
176
     1
 90
       50
176
     0
 90
       50
176
     0
 90
       50
176
     0
290
     0
176
     1
 90
       50
176
     0
 62
   256
176
     0
 40
1.0
176
     0
 90
        2
176
     0
  1
strokes_ogs.tif
176
     0
290
     0
176
     1
 40
1.0
176
     0
 40
1.0
176
     0
  0
VISUALSTYLE
  5
1002C
102
{ACAD_REACTORS
330
1001D
102
}
330
1001D
100
AcDbVisualStyle
  2
Facepattern
 70
    15
177
     3
291
     1
 70
    58
 90
        2
176
     1
 90
        2
176
     1
 90
        0
176
     1
 90
        0
176
     1
 40
0.6
176
     1
 40
30.0
176
     1
 62
     7
420
 16777215
176
     1
 90
        1
176
     1
 90
        4
176
     1
 62
     7
176
     1
 62
   257
176
     1
 90
        1
176
     1
 90
        1
176
     1
 40
1.0
176
     1
 90
        8
176
     1
 62
     7
176
     1
 40
1.0
176
     1
 90
        1
176
     1
 90
        6
176
     1
 90
        2
176
     1
 62
     7
176
     1
 90
        5
176
     1
 90
        0
176
     1
 90
        0
176
     1
290
     0
176
     1
 90
        1
176
     1
 40
0.0
176
     1
 90
        0
176
     1
290
     0
176
     1
290
     1
176
     1
290
     1
176
     1
290
     0
176
     1
290
     0
176
     1
290
     0
176
     1
290
     0
176
     1
290
     0
176
     1
290
     0
176
     1
 90
       50
176
     1
 40
0.0
176
     1
 40
1.0
176
     1
 90
        0
176
     1
 62
    18
420
        0
176
     1
 90
       50
176
     1
 90
        3
176
     1
 62
     5
420
      255
176
     1
290
     0
176
     1
 90
       50
176
     1
 90
       50
176
     1
 90
       50
176
     1
290
     0
176
     1
 90
       50
176
     1
 62
   256
176
     0
 40
1.0
176
     0
 90
        2
176
     1
  1
strokes_ogs.tif
176
     1
290
     0
176
     1
 40
1.0
176
     1
 40
1.0
176
     1
  0
VISUALSTYLE
  5
1001E
102
{ACAD_REACTORS
330
1001D
102
}
330
1001D
100
AcDbVisualStyle
  2
Flat
 70
     0
177
     3
291
     1
 70
    58
 90
        2
176
     1
 90
        1
176
     1
 90
        1
176
     1
 90
        2
176
     1
 40
0.6
176
     1
 40
30.0
176
     1
 62
     7
420
 16777215
176
     1
 90
        0
176
     1
 90
        0
176
     1
 62
     7
176
     1
 62
   257
176
     1
 90
        1
176
     1
 90
        1
176
     1
 40
1.0
176
     1
 90
        8
176
     1
 62
     7
176
     1
 40
1.0
176
     1
 90
        1
176
     1
 90
        6
176
     1
 90
        2
176
     1
 62
     7
176
     1
 90
        5
176
     1
 90
        0
176
     1
 90
        0
176
     1
290
     0
176
     1
 90
       13
176
     1
 40
0.0
176
     1
 90
        0
176
     1
290
     0
176
     1
290
     1
176
     1
290
     1
176
     1
290
     0
176
     1
290
     0
176
     1
290
     0
176
     1
290
     0
176
     1
290
     0
176
     1
290
     0
176
     1
 90
       50
176
     1
 40
0.0
176
     1
 40
1.0
176
     1
 90
        0
176
     1
 62
    18
420
        0
176
     1
 90
       50
176
     1
 90
        3
176
     1
 62
     5
420
      255
176
     1
290
     0
176
     1
 90
       50
176
     1
 90
       50
176
     1
 90
       50
176
     1
290
     0
176
     1
 90
       50
176
     1
 62
   256
176
     0
 40
1.0
176
     0
 90
        2
176
     1
  1
strokes_ogs.tif
176
     1
290
     0
176
     1
 40
1.0
176
     1
 40
1.0
176
     1
  0
VISUALSTYLE
  5
1001F
102
{ACAD_REACTORS
330
1001D
102
}
330
1001D
100
AcDbVisualStyle
  2
FlatWithEdges
 70
     1
177
     3
291
     1
 70
    58
 90
        2
176
     1
 90
        1
176
     1
 90
        1
176
     1
 90
        2
176
     1
 40
0.6
176
     1
 40
30.0
176
     1
 62
     7
420
 16777215
176
     1
 90
        1
176
     1
 90
        0
176
     1
 62
     7
176
     1
 62
   257
176
     1
 90
        1
176
     1
 90
        1
176
     1
 40
1.0
176
     1
 90
        0
176
     1
 62
   257
176
     1
 40
1.0
176
     1
 90
        1
176
     1
 90
        6
176
     1
 90
        2
176
     1
 62
     7
176
     1
 90
        5
176
     1
 90
        0
176
     1
 90
        0
176
     1
290
     0
176
     1
 90
       13
176
     1
 40
0.0
176
     1
 90
        0
176
     1
290
     0
176
     1
290
     1
176
     1
290
     1
176
     1
290
     0
176
     1
290
     0
176
     1
290
     0
176
     1
290
     0
176
     1
290
     0
176
     1
290
     0
176
     1
 90
       50
176
     1
 40
0.0
176
     1
 40
1.0
176
     1
 90
        0
176
     1
 62
    18
420
        0
176
     1
 90
       50
176
     1
 90
        3
176
     1
 62
     5
420
      255
176
     1
290
     0
176
     1
 90
       50
176
     1
 90
       50
176
     1
 90
       50
176
     1
290
     0
176
     1
 90
       50
176
     1
 62
   256
176
     0
 40
1.0
176
     0
 90
        2
176
     1
  1
strokes_ogs.tif
176
     1
290
     0
176
     1
 40
1.0
176
     1
 40
1.0
176
     1
  0
VISUALSTYLE
  5
10020
102
{ACAD_REACTORS
330
1001D
102
}
330
1001D
100
AcDbVisualStyle
  2
Gouraud
 70
     2
177
     3
291
     1
 70
    58
 90
        2
176
     1
 90
        2
176
     1
 90
        1
176
     1
 90
        2
176
     1
 40
0.6
176
     1
 40
30.0
176
     1
 62
     7
420
 16777215
176
     1
 90
        0
176
     1
 90
        0
176
     1
 62
     7
176
     1
 62
   257
176
     1
 90
        1
176
     1
 90
        1
176
     1
 40
1.0
176
     1
 90
        0
176
     1
 62
     7
176
     1
 40
1.0
176
     1
 90
        1
176
     1
 90
        6
176
     1
 90
        2
176
     1
 62
     7
176
     1
 90
        5
176
     1
 90
        0
176
     1
 90
        0
176
     1
290
     0
176
     1
 90
       13
176
     1
 40
0.0
176
     1
 90
        0
176
     1
290
     0
176
     1
290
     1
176
     1
290
     1
176
     1
290
     0
176
     1
290
     0
176
     1
290
     0
176
     1
290
     0
176
     1
290
     0
176
     1
290
     0
176
     1
 90
       50
176
     1
 40
0.0
176
     1
 40
1.0
176
     1
 90
        0
176
     1
 62
    18
420
        0
176
     1
 90
       50
176
     1
 90
        3
176
     1
 62
     5
420
      255
176
     1
290
     0
176
     1
 90
       50
176
     1
 90
       50
176
     1
 90
       50
176
     1
290
     0
176
     1
 90
       50
176
     1
 62
   256
176
     0
 40
1.0
176
     0
 90
        2
176
     1
  1
strokes_ogs.tif
176
     1
290
     0
176
     1
 40
1.0
176
     1
 40
1.0
176
     1
  0
VISUALSTYLE
  5
10021
102
{ACAD_REACTORS
330
1001D
102
}
330
1001D
100
AcDbVisualStyle
  2
GouraudWithEdges
 70
     3
177
     3
291
     1
 70
    58
 90
        2
176
     1
 90
        2
176
     1
 90
        1
176
     1
 90
        2
176
     1
 40
0.6
176
     1
 40
30.0
176
     1
 62
     7
420
 16777215
176
     1
 90
        1
176
     1
 90
        0
176
     1
 62
     7
176
     1
 62
   257
176
     1
 90
        1
176
     1
 90
        1
176
     1
 40
1.0
176
     1
 90
        0
176
     1
 62
   257
176
     1
 40
1.0
176
     1
 90
        1
176
     1
 90
        6
176
     1
 90
        2
176
     1
 62
     7
176
     1
 90
        5
176
     1
 90
        0
176
     1
 90
        0
176
     1
290
     0
176
     1
 90
       13
176
     1
 40
0.0
176
     1
 90
        0
176
     1
290
     0
176
     1
290
     1
176
     1
290
     1
176
     1
290
     0
176
     1
290
     0
176
     1
290
     0
176
     1
290
     0
176
     1
290
     0
176
     1
290
     0
176
     1
 90
       50
176
     1
 40
0.0
176
     1
 40
1.0
176
     1
 90
        0
176
     1
 62
    18
420
        0
176
     1
 90
       50
176
     1
 90
        3
176
     1
 62
     5
420
      255
176
     1
290
     0
176
     1
 90
       50
176
     1
 90
       50
176
     1
 90
       50
176
     1
290
     0
176
     1
 90
       50
176
     1
 62
   256
176
     0
 40
1.0
176
     0
 90
        2
176
     1
  1
strokes_ogs.tif
176
     1
290
     0
176
     1
 40
1.0
176
     1
 40
1.0
176
     1
  0
VISUALSTYLE
  5
10025
102
{ACAD_REACTORS
330
1001D
102
}
330
1001D
100
AcDbVisualStyle
  2
Hidden
 70
     6
177
     3
291
     0
 70
    58
 90
        1
176
     1
 90
        2
176
     1
 90
        2
176
     1
 90
        0
176
     1
 40
0.6
176
     1
 40
30.0
176
     1
 62
     7
420
 16777215
176
     1
 90
        2
176
     1
 90
        2
176
     1
 62
     7
176
     1
 62
   257
176
     1
 90
        2
176
     1
 90
        1
176
     1
 40
40.0
176
     1
 90
        0
176
     1
 62
   257
176
     1
 40
1.0
176
     1
 90
        1
176
     1
 90
        6
176
     1
 90
        2
176
     1
 62
     7
176
     1
 90
        3
176
     1
 90
        0
176
     1
 90
        0
176
     1
290
     0
176
     1
 90
        1
176
     1
 40
0.0
176
     1
 90
        0
176
     1
290
     0
176
     1
290
     1
176
     1
290
     1
176
     1
290
     0
176
     1
290
     0
176
     1
290
     0
176
     1
290
     0
176
     1
290
     0
176
     1
290
     0
176
     1
 90
       50
176
     1
 40
0.0
176
     1
 40
1.0
176
     1
 90
        0
176
     1
 62
    18
420
        0
176
     1
 90
       50
176
     1
 90
        3
176
     1
 62
     5
420
      255
176
     1
290
     0
176
     1
 90
       50
176
     1
 90
       50
176
     1
 90
       50
176
     1
290
     0
176
     1
 90
       50
176
     1
 62
   256
176
     0
 40
1.0
176
     0
 90
        2
176
     1
  1
strokes_ogs.tif
176
     1
290
     0
176
     1
 40
1.0
176
     1
 40
1.0
176
     1
  0
VISUALSTYLE
  5
10033
102
{ACAD_REACTORS
330
1001D
102
}
330
1001D
100
AcDbVisualStyle
  2
JitterOff
 70
    20
177
     3
291
     1
 70
    58
 90
        2
176
     0
 90
        2
176
     0
 90
        0
176
     0
 90
        0
176
     0
 40
0.6
176
     0
 40
30.0
176
     0
 62
     7
420
 16777215
176
     0
 90
        1
176
     0
 90
        4
176
     0
 62
     7
176
     0
 62
   257
176
     0
 90
        1
176
     0
 90
        1
176
     0
 40
1.0
176
     0
 90
       10
176
     2
 62
     7
176
     0
 40
1.0
176
     0
 90
        1
176
     0
 90
        6
176
     0
 90
        2
176
     0
 62
     7
176
     0
 90
        5
176
     0
 90
        0
176
     0
 90
        0
176
     0
290
     0
176
     0
 90
        1
176
     0
 40
0.0
176
     0
 90
        0
176
     0
290
     0
176
     1
290
     1
176
     1
290
     1
176
     1
290
     0
176
     1
290
     0
176
     1
290
     0
176
     1
290
     0
176
     1
290
     0
176
     1
290
     0
176
     1
 90
       50
176
     0
 40
0.0
176
     0
 40
1.0
176
     0
 90
        0
176
     0
 62
    18
420
        0
176
     0
 90
       50
176
     0
 90
        3
176
     0
 62
     5
420
      255
176
     0
290
     0
176
     1
 90
       50
176
     0
 90
       50
176
     0
 90
       50
176
     0
290
     0
176
     1
 90
       50
176
     0
 62
   256
176
     0
 40
1.0
176
     0
 90
        2
176
     0
  1
strokes_ogs.tif
176
     0
290
     0
176
     1
 40
1.0
176
     0
 40
1.0
176
     0
  0
VISUALSTYLE
  5
1002B
102
{ACAD_REACTORS
330
1001D
102
}
330
1001D
100
AcDbVisualStyle
  2
Linepattern
 70
    14
177
     3
291
     1
 70
    58
 90
        2
176
     1
 90
        2
176
     1
 90
        0
176
     1
 90
        0
176
     1
 40
0.6
176
     1
 40
30.0
176
     1
 62
     7
420
 16777215
176
     1
 90
        1
176
     1
 90
        4
176
     1
 62
     7
176
     1
 62
   257
176
     1
 90
        7
176
     1
 90
        7
176
     1
 40
1.0
176
     1
 90
        8
176
     1
 62
     7
176
     1
 40
1.0
176
     1
 90
        1
176
     1
 90
        6
176
     1
 90
        2
176
     1
 62
     7
176
     1
 90
        5
176
     1
 90
        0
176
     1
 90
        0
176
     1
290
     0
176
     1
 90
        1
176
     1
 40
0.0
176
     1
 90
        0
176
     1
290
     0
176
     1
290
     1
176
     1
290
     1
176
     1
290
     0
176
     1
290
     0
176
     1
290
     0
176
     1
290
     0
176
     1
290
     0
176
     1
290
     0
176
     1
 90
       50
176
     1
 40
0.0
176
     1
 40
1.0
176
     1
 90
        0
176
     1
 62
    18
420
        0
176
     1
 90
       50
176
     1
 90
        3
176
     1
 62
     5
420
      255
176
     1
290
     0
176
     1
 90
       50
176
     1
 90
       50
176
     1
 90
       50
176
     1
290
     0
176
     1
 90
       50
176
     1
 62
   256
176
     0
 40
1.0
176
     0
 90
        2
176
     1
  1
strokes_ogs.tif
176
     1
290
     0
176
     1
 40
1.0
176
     1
 40
1.0
176
     1
  0
VISUALSTYLE
  5
10034
102
{ACAD_REACTORS
330
1001D
102
}
330
1001D
100
AcDbVisualStyle
  2
OverhangOff
 70
    21
177
     3
291
     1
 70
    58
 90
        2
176
     0
 90
        2
176
     0
 90
        0
176
     0
 90
        0
176
     0
 40
0.6
176
     0
 40
30.0
176
     0
 62
     7
420
 16777215
176
     0
 90
        1
176
     0
 90
        4
176
     0
 62
     7
176
     0
 62
   257
176
     0
 90
        1
176
     0
 90
        1
176
     0
 40
1.0
176
     0
 90
        9
176
     2
 62
     7
176
     0
 40
1.0
176
     0
 90
        1
176
     0
 90
        6
176
     0
 90
        2
176
     0
 62
     7
176
     0
 90
        5
176
     0
 90
        0
176
     0
 90
        0
176
     0
290
     0
176
     0
 90
        1
176
     0
 40
0.0
176
     0
 90
        0
176
     0
290
     0
176
     1
290
     1
176
     1
290
     1
176
     1
290
     0
176
     1
290
     0
176
     1
290
     0
176
     1
290
     0
176
     1
290
     0
176
     1
290
     0
176
     1
 90
       50
176
     0
 40
0.0
176
     0
 40
1.0
176
     0
 90
        0
176
     0
 62
    18
420
        0
176
     0
 90
       50
176
     0
 90
        3
176
     0
 62
     5
420
      255
176
     0
290
     0
176
     1
 90
       50
176
     0
 90
       50
176
     0
 90
       50
176
     0
290
     0
176
     1
 90
       50
176
     0
 62
   256
176
     0
 40
1.0
176
     0
 90
        2
176
     0
  1
strokes_ogs.tif
176
     0
290
     0
176
     1
 40
1.0
176
     0
 40
1.0
176
     0
  0
VISUALSTYLE
  5
10027
102
{ACAD_REACTORS
330
1001D
102
}
330
1001D
100
AcDbVisualStyle
  2
Realistic
 70
     8
177
     3
291
     0
 70
    58
 90
        2
176
     1
 90
        3
176
     1
 90
        0
176
     1
 90
        2
176
     1
 40
0.6
176
     1
 40
30.0
176
     1
 62
     7
420
 16777215
176
     1
 90
        0
176
     1
 90
        0
176
     1
 62
     7
176
     1
 62
   257
176
     1
 90
        1
176
     1
 90
        1
176
     1
 40
1.0
176
     1
 90
        8
176
     1
 62
   257
176
     1
 40
1.0
176
     1
 90
        1
176
     1
 90
        6
176
     1
 90
        2
176
     1
 62
     7
176
     1
 90
        3
176
     1
 90
        0
176
     1
 90
        0
176
     1
290
     0
176
     1
 90
       13
176
     1
 40
0.0
176
     1
 90
        0
176
     1
290
     0
176
     1
290
     1
176
     1
290
     1
176
     1
290
     0
176
     1
290
     0
176
     1
290
     0
176
     1
290
     0
176
     1
290
     0
176
     1
290
     0
176
     1
 90
       50
176
     1
 40
0.0
176
     1
 40
1.0
176
     1
 90
        0
176
     1
 62
    18
420
        0
176
     1
 90
       50
176
     1
 90
        3
176
     1
 62
     5
420
      255
176
     1
290
     0
176
     1
 90
       50
176
     1
 90
       50
176
     1
 90
       50
176
     1
290
     0
176
     1
 90
       50
176
     1
 62
   256
176
     0
 40
1.0
176
     0
 90
        2
176
     1
  1
strokes_ogs.tif
176
     1
290
     0
176
     1
 40
1.0
176
     1
 40
1.0
176
     1
  0
VISUALSTYLE
  5
10032
102
{ACAD_REACTORS
330
1001D
102
}
330
1001D
100
AcDbVisualStyle
  2
Shaded
 70
    27
177
     3
291
     0
 70
    58
 90
        2
176
     1
 90
        2
176
     1
 90
        1
176
     1
 90
        2
176
     1
 40
0.6
176
     1
 40
30.0
176
     1
 62
     7
420
 16777215
176
     1
 90
        0
176
     1
 90
        4
176
     1
 62
     7
176
     1
 62
   257
176
     1
 90
        1
176
     1
 90
        1
176
     1
 40
1.0
176
     1
 90
        8
176
     1
 62
   257
176
     1
 40
1.0
176
     1
 90
        1
176
     1
 90
        6
176
     1
 90
        2
176
     1
 62
     8
420
  7895160
176
     1
 90
        3
176
     1
 90
        0
176
     1
 90
        0
176
     1
290
     0
176
     1
 90
        5
176
     1
 40
0.0
176
     1
 90
        0
176
     1
290
     0
176
     1
290
     1
176
     1
290
     1
176
     1
290
     0
176
     1
290
     0
176
     1
290
     0
176
     1
290
     0
176
     1
290
     0
176
     1
290
     0
176
     1
 90
       50
176
     1
 40
0.0
176
     1
 40
1.0
176
     1
 90
        0
176
     1
 62
    18
420
        0
176
     1
 90
       50
176
     1
 90
        3
176
     1
 62
     5
420
      255
176
     1
290
     0
176
     1
 90
       50
176
     1
 90
       50
176
     1
 90
       50
176
     1
290
     0
176
     1
 90
       50
176
     1
 62
   256
176
     0
 40
1.0
176
     0
 90
        2
176
     1
  1
strokes_ogs.tif
176
     1
290
     0
176
     1
 40
1.0
176
     1
 40
1.0
176
     1
  0
VISUALSTYLE
  5
10031
102
{ACAD_REACTORS
330
1001D
102
}
330
1001D
100
AcDbVisualStyle
  2
Shaded with edges
 70
    26
177
     3
291
     0
 70
    58
 90
        2
176
     1
 90
        2
176
     1
 90
        1
176
     1
 90
        2
176
     1
 40
0.6
176
     1
 40
30.0
176
     1
 62
     7
420
 16777215
176
     1
 90
        1
176
     1
 90
        2
176
     1
 62
     7
176
     1
 62
   257
176
     1
 90
        2
176
     1
 90
        1
176
     1
 40
1.0
176
     1
 90
        8
176
     1
 62
   257
176
     1
 40
1.0
176
     1
 90
        1
176
     1
 90
        6
176
     1
 90
        2
176
     1
 62
     7
176
     1
 90
        3
176
     1
 90
        0
176
     1
 90
        0
176
     1
290
     0
176
     1
 90
        5
176
     1
 40
0.0
176
     1
 90
        0
176
     1
290
     0
176
     1
290
     1
176
     1
290
     1
176
     1
290
     0
176
     1
290
     0
176
     1
290
     0
176
     1
290
     0
176
     1
290
     0
176
     1
290
     0
176
     1
 90
       50
176
     1
 40
0.0
176
     1
 40
1.0
176
     1
 90
        0
176
     1
 62
    18
420
        0
176
     1
 90
       50
176
     1
 90
        3
176
     1
 62
     5
420
      255
176
     1
290
     0
176
     1
 90
       50
176
     1
 90
       50
176
     1
 90
       50
176
     1
290
     0
176
     1
 90
       50
176
     1
 62
   256
176
     0
 40
1.0
176
     0
 90
        2
176
     1
  1
strokes_ogs.tif
176
     1
290
     0
176
     1
 40
1.0
176
     1
 40
1.0
176
     1
  0
VISUALSTYLE
  5
1002E
102
{ACAD_REACTORS
330
1001D
102
}
330
1001D
100
AcDbVisualStyle
  2
Shades of Gray
 70
    23
177
     3
291
     0
 70
    58
 90
        2
176
     1
 90
        2
176
     1
 90
        3
176
     1
 90
        0
176
     1
 40
0.6
176
     1
 40
30.0
176
     1
 62
     7
420
 16777215
176
     1
 90
        2
176
     1
 90
        2
176
     1
 62
     7
176
     1
 62
     7
176
     1
 90
        1
176
     1
 90
        1
176
     1
 40
40.0
176
     1
 90
        8
176
     1
 62
     7
176
     1
 40
1.0
176
     1
 90
        1
176
     1
 90
        6
176
     1
 90
        2
176
     1
 62
     7
176
     1
 90
        3
176
     1
 90
        0
176
     1
 90
        0
176
     1
290
     0
176
     1
 90
        1
176
     1
 40
0.0
176
     1
 90
        0
176
     1
290
     0
176
     1
290
     1
176
     1
290
     1
176
     1
290
     0
176
     1
290
     0
176
     1
290
     0
176
     1
290
     0
176
     1
290
     0
176
     1
290
     0
176
     1
 90
       50
176
     1
 40
0.0
176
     1
 40
1.0
176
     1
 90
        0
176
     1
 62
    18
420
        0
176
     1
 90
       50
176
     1
 90
        3
176
     1
 62
     5
420
      255
176
     1
290
     0
176
     1
 90
       50
176
     1
 90
       50
176
     1
 90
       50
176
     1
290
     0
176
     1
 90
       50
176
     1
 62
   256
176
     0
 40
1.0
176
     0
 90
        2
176
     1
  1
strokes_ogs.tif
176
     1
290
     0
176
     1
 40
1.0
176
     1
 40
1.0
176
     1
  0
VISUALSTYLE
  5
1002F
102
{ACAD_REACTORS
330
1001D
102
}
330
1001D
100
AcDbVisualStyle
  2
Sketchy
 70
    24
177
     3
291
     0
 70
    58
 90
        1
176
     1
 90
        2
176
     1
 90
        2
176
     1
 90
        0
176
     1
 40
0.6
176
     1
 40
30.0
176
     1
 62
     7
420
 16777215
176
     1
 90
        2
176
     1
 90
        2
176
     1
 62
     7
176
     1
 62
     7
176
     1
 90
        1
176
     1
 90
        1
176
     1
 40
40.0
176
     1
 90
       11
176
     1
 62
     7
176
     1
 40
1.0
176
     1
 90
        1
176
     1
 90
        6
176
     1
 90
        2
176
     1
 62
     7
176
     1
 90
        6
176
     1
 90
        0
176
     1
 90
        0
176
     1
290
     0
176
     1
 90
        1
176
     1
 40
0.0
176
     1
 90
        0
176
     1
290
     0
176
     1
290
     1
176
     1
290
     1
176
     1
290
     0
176
     1
290
     0
176
     1
290
     0
176
     1
290
     0
176
     1
290
     0
176
     1
290
     0
176
     1
 90
       50
176
     1
 40
0.0
176
     1
 40
1.0
176
     1
 90
        0
176
     1
 62
    18
420
        0
176
     1
 90
       50
176
     1
 90
        3
176
     1
 62
     5
420
      255
176
     1
290
     0
176
     1
 90
       50
176
     1
 90
       50
176
     1
 90
       50
176
     1
290
     0
176
     1
 90
       50
176
     1
 62
   256
176
     0
 40
1.0
176
     0
 90
        2
176
     1
  1
strokes_ogs.tif
176
     1
290
     0
176
     1
 40
1.0
176
     1
 40
1.0
176
     1
  0
VISUALSTYLE
  5
1002A
102
{ACAD_REACTORS
330
1001D
102
}
330
1001D
100
AcDbVisualStyle
  2
Thicken
 70
    13
177
     3
291
     1
 70
    58
 90
        2
176
     1
 90
        2
176
     1
 90
        0
176
     1
 90
        0
176
     1
 40
0.6
176
     1
 40
30.0
176
     1
 62
     7
420
 16777215
176
     1
 90
        1
176
     1
 90
        4
176
     1
 62
     7
176
     1
 62
   257
176
     1
 90
        1
176
     1
 90
        1
176
     1
 40
1.0
176
     1
 90
       12
176
     1
 62
     7
176
     1
 40
1.0
176
     1
 90
        1
176
     1
 90
        6
176
     1
 90
        2
176
     1
 62
     7
176
     1
 90
        5
176
     1
 90
        0
176
     1
 90
        0
176
     1
290
     0
176
     1
 90
        1
176
     1
 40
0.0
176
     1
 90
        0
176
     1
290
     0
176
     1
290
     1
176
     1
290
     1
176
     1
290
     0
176
     1
290
     0
176
     1
290
     0
176
     1
290
     0
176
     1
290
     0
176
     1
290
     0
176
     1
 90
       50
176
     1
 40
0.0
176
     1
 40
1.0
176
     1
 90
        0
176
     1
 62
    18
420
        0
176
     1
 90
       50
176
     1
 90
        3
176
     1
 62
     5
420
      255
176
     1
290
     0
176
     1
 90
       50
176
     1
 90
       50
176
     1
 90
       50
176
     1
290
     0
176
     1
 90
       50
176
     1
 62
   256
176
     0
 40
1.0
176
     0
 90
        2
176
     1
  1
strokes_ogs.tif
176
     1
290
     0
176
     1
 40
1.0
176
     1
 40
1.0
176
     1
  0
VISUALSTYLE
  5
10024
102
{ACAD_REACTORS
330
1001D
102
}
330
1001D
100
AcDbVisualStyle
  2
Wireframe
 70
     5
177
     3
291
     0
 70
    58
 90
        0
176
     1
 90
        2
176
     1
 90
        0
176
     1
 90
        0
176
     1
 40
0.6
176
     1
 40
30.0
176
     1
 62
     7
420
 16777215
176
     1
 90
        1
176
     1
 90
        4
176
     1
 62
     7
176
     1
 62
   257
176
     1
 90
        1
176
     1
 90
        1
176
     1
 40
1.0
176
     1
 90
        0
176
     1
 62
   257
176
     1
 40
1.0
176
     1
 90
        1
176
     1
 90
        6
176
     1
 90
        2
176
     1
 62
     7
176
     1
 90
        3
176
     1
 90
        0
176
     1
 90
        0
176
     1
290
     0
176
     1
 90
        1
176
     1
 40
0.0
176
     1
 90
        0
176
     1
290
     0
176
     1
290
     1
176
     1
290
     1
176
     1
290
     0
176
     1
290
     0
176
     1
290
     0
176
     1
290
     0
176
     1
290
     0
176
     1
290
     0
176
     1
 90
       50
176
     1
 40
0.0
176
     1
 40
1.0
176
     1
 90
        0
176
     1
 62
    18
420
        0
176
     1
 90
       50
176
     1
 90
        3
176
     1
 62
     5
420
      255
176
     1
290
     0
176
     1
 90
       50
176
     1
 90
       50
176
     1
 90
       50
176
     1
290
     0
176
     1
 90
       50
176
     1
 62
   256
176
     0
 40
1.0
176
     0
 90
        2
176
     1
  1
strokes_ogs.tif
176
     1
290
     0
176
     1
 40
1.0
176
     1
 40
1.0
176
     1
  0
VISUALSTYLE
  5
10030
102
{ACAD_REACTORS
330
1001D
102
}
330
1001D
100
AcDbVisualStyle
  2
X-Ray
 70
    25
177
     3
291
     0
 70
    58
 90
        2
176
     1
 90
        2
176
     1
 90
        1
176
     1
 90
        1
176
     1
 40
0.5
176
     1
 40
30.0
176
     1
 62
     7
420
 16777215
176
     1
 90
        1
176
     1
 90
        0
176
     1
 62
     7
176
     1
 62
   257
176
     1
 90
        1
176
     1
 90
        1
176
     1
 40
1.0
176
     1
 90
        8
176
     1
 62
     7
176
     1
 40
1.0
176
     1
 90
        1
176
     1
 90
        6
176
     1
 90
        2
176
     1
 62
     7
176
     1
 90
        3
176
     1
 90
        0
176
     1
 90
        0
176
     1
290
     0
176
     1
 90
       13
176
     1
 40
0.0
176
     1
 90
        0
176
     1
290
     0
176
     1
290
     1
176
     1
290
     1
176
     1
290
     0
176
     1
290
     0
176
     1
290
     0
176
     1
290
     0
176
     1
290
     0
176
     1
290
     0
176
     1
 90
       50
176
     1
 40
0.0
176
     1
 40
1.0
176
     1
 90
        0
176
     1
 62
    18
420
        0
176
     1
 90
       50
176
     1
 90
        3
176
     1
 62
     5
420
      255
176
     1
290
     0
176
     1
 90
       50
176
     1
 90
       50
176
     1
 90
       50
176
     1
290
     0
176
     1
 90
       50
176
     1
 62
   256
176
     0
 40
1.0
176
     0
 90
        2
176
     1
  1
strokes_ogs.tif
176
     1
290
     0
176
     1
 40
1.0
176
     1
 40
1.0
176
     1
  0
DICTIONARYVAR
  5
1037A
102
{ACAD_REACTORS
330
10374
102
}
330
10374
100
DictionaryVariables
280
     0
  1
1:1
  0
DICTIONARYVAR
  5
10376
102
{ACAD_REACTORS
330
10374
102
}
330
10374
100
DictionaryVariables
280
     0
  1
STANDARD
  0
DICTIONARYVAR
  5
10375
102
{ACAD_REACTORS
330
10374
102
}
330
10374
100
DictionaryVariables
280
     0
  1
STANDARD
  0
DICTIONARYVAR
  5
10377
102
{ACAD_REACTORS
330
10374
102
}
330
10374
100
DictionaryVariables
280
     0
  1
Imperial24
  0
DICTIONARYVAR
  5
10378
102
{ACAD_REACTORS
330
10374
102
}
330
10374
100
DictionaryVariables
280
     0
  1
Imperial24
  0
DICTIONARYVAR
  5
1037C
102
{ACAD_REACTORS
330
10374
102
}
330
10374
100
DictionaryVariables
280
     0
  1
1
  0
DICTIONARYVAR
  5
1037D
102
{ACAD_REACTORS
330
10374
102
}
330
10374
100
DictionaryVariables
280
     0
  1
15
  0
DICTIONARYVAR
  5
1037B
102
{ACAD_REACTORS
330
10374
102
}
330
10374
100
DictionaryVariables
280
     0
  1
0
  0
DICTIONARYVAR
  5
10379
102
{ACAD_REACTORS
330
10374
102
}
330
10374
100
DictionaryVariables
280
     0
  1
0
  0
DICTIONARY
  5
1000E
330
1000D
100
AcDbDictionary
280
     1
281
     1
  3
BUMPTILE
360
10010
  3
DIFFUSETILE
360
1000F
  3
OPACITYTILE
360
10013
  3
REFLECTIONTILE
360
10012
  3
REFRACTIONTILE
360
10014
  3
SPECULARTILE
360
10011
  0
DICTIONARY
  5
10006
330
10005
100
AcDbDictionary
280
     1
281
     1
  3
BUMPTILE
360
10008
  3
DIFFUSETILE
360
10007
  3
OPACITYTILE
360
1000B
  3
REFLECTIONTILE
360
1000A
  3
REFRACTIONTILE
360
1000C
  3
SPECULARTILE
360
10009
  0
DICTIONARY
  5
10016
330
10015
100
AcDbDictionary
280
     1
281
     1
  3
BUMPTILE
360
10018
  3
DIFFUSETILE
360
10017
  3
OPACITYTILE
360
1001B
  3
REFLECTIONTILE
360
1001A
  3
REFRACTIONTILE
360
1001C
  3
SPECULARTILE
360
10019
  0
DICTIONARY
  5
1037E
330
10039
100
AcDbDictionary
280
     1
281
     1
  3
ACAD_ROUNDTRIP_2008_TABLESTYLE_CELLSTYLEMAP
360
1037F
  0
XRECORD
  5
10010
102
{ACAD_REACTORS
330
1000E
102
}
330
1000E
100
AcDbXrecord
280
     1
270
     1
271
     1
  0
XRECORD
  5
1000F
102
{ACAD_REACTORS
330
1000E
102
}
330
1000E
100
AcDbXrecord
280
     1
270
     1
271
     1
  0
XRECORD
  5
10013
102
{ACAD_REACTORS
330
1000E
102
}
330
1000E
100
AcDbXrecord
280
     1
270
     1
271
     1
  0
XRECORD
  5
10012
102
{ACAD_REACTORS
330
1000E
102
}
330
1000E
100
AcDbXrecord
280
     1
270
     1
271
     1
  0
XRECORD
  5
10014
102
{ACAD_REACTORS
330
1000E
102
}
330
1000E
100
AcDbXrecord
280
     1
270
     1
271
     1
  0
XRECORD
  5
10011
102
{ACAD_REACTORS
330
1000E
102
}
330
1000E
100
AcDbXrecord
280
     1
270
     1
271
     1
  0
XRECORD
  5
10008
102
{ACAD_REACTORS
330
10006
102
}
330
10006
100
AcDbXrecord
280
     1
270
     1
271
     1
  0
XRECORD
  5
10007
102
{ACAD_REACTORS
330
10006
102
}
330
10006
100
AcDbXrecord
280
     1
270
     1
271
     1
  0
XRECORD
  5
1000B
102
{ACAD_REACTORS
330
10006
102
}
330
10006
100
AcDbXrecord
280
     1
270
     1
271
     1
  0
XRECORD
  5
1000A
102
{ACAD_REACTORS
330
10006
102
}
330
10006
100
AcDbXrecord
280
     1
270
     1
271
     1
  0
XRECORD
  5
1000C
102
{ACAD_REACTORS
330
10006
102
}
330
10006
100
AcDbXrecord
280
     1
270
     1
271
     1
  0
XRECORD
  5
10009
102
{ACAD_REACTORS
330
10006
102
}
330
10006
100
AcDbXrecord
280
     1
270
     1
271
     1
  0
XRECORD
  5
10018
102
{ACAD_REACTORS
330
10016
102
}
330
10016
100
AcDbXrecord
280
     1
270
     1
271
     1
  0
XRECORD
  5
10017
102
{ACAD_REACTORS
330
10016
102
}
330
10016
100
AcDbXrecord
280
     1
270
     1
271
     1
  0
XRECORD
  5
1001B
102
{ACAD_REACTORS
330
10016
102
}
330
10016
100
AcDbXrecord
280
     1
270
     1
271
     1
  0
XRECORD
  5
1001A
102
{ACAD_REACTORS
330
10016
102
}
330
10016
100
AcDbXrecord
280
     1
270
     1
271
     1
  0
XRECORD
  5
1001C
102
{ACAD_REACTORS
330
10016
102
}
330
10016
100
AcDbXrecord
280
     1
270
     1
271
     1
  0
XRECORD
  5
10019
102
{ACAD_REACTORS
330
10016
102
}
330
10016
100
AcDbXrecord
280
     1
270
     1
271
     1
  0
CELLSTYLEMAP
  5
1037F
102
{ACAD_REACTORS
330
1037E
102
}
330
1037E
100
AcDbCellStyleMap
 90
        3
300
CELLSTYLE
  1
TABLEFORMAT_BEGIN
 90
        5
170
     1
 91
        0
 92
    32768
 62
   257
 93
        1
300
CONTENTFORMAT
  1
CONTENTFORMAT_BEGIN
 90
        0
 91
        0
 92
      512
 93
        0
300

 40
0.0
140
1.0
 94
        5
 62
     0
340
11
144
0.25
309
CONTENTFORMAT_END
171
     0
 94
        0
309
TABLEFORMAT_END
  1
CELLSTYLE_BEGIN
 90
        1
 91
        1
300
_TITLE
309
CELLSTYLE_END
300
CELLSTYLE
  1
TABLEFORMAT_BEGIN
 90
        5
170
     1
 91
        0
 92
        0
 62
   257
 93
        1
300
CONTENTFORMAT
  1
CONTENTFORMAT_BEGIN
 90
        0
 91
        0
 92
      512
 93
        0
300

 40
0.0
140
1.0
 94
        5
 62
     0
340
11
144
0.18
309
CONTENTFORMAT_END
171
     0
 94
        0
309
TABLEFORMAT_END
  1
CELLSTYLE_BEGIN
 90
        2
 91
        1
300
_HEADER
309
CELLSTYLE_END
300
CELLSTYLE
  1
TABLEFORMAT_BEGIN
 90
        5
170
     1
 91
        0
 92
        0
 62
   257
 93
        1
300
CONTENTFORMAT
  1
CONTENTFORMAT_BEGIN
 90
        0
 91
        0
 92
      512
 93
        0
300

 40
0.0
140
1.0
 94
        2
 62
     0
340
11
144
0.18
309
CONTENTFORMAT_END
171
     0
 94
        0
309
TABLEFORMAT_END
  1
CELLSTYLE_BEGIN
 90
        3
 91
        2
300
_DATA
309
CELLSTYLE_END
  0
ENDSEC
  0
SECTION
  2
ACDSDATA
 70
     2
 71
     8
  0
ACDSSCHEMA
 90
        0
  1
AcDb_Thumbnail_Schema
  2
AcDbDs::ID
280
    10
 91
        8
  2
Thumbnail_Data
280
    15
 91
        0
101
ACDSRECORD
 95
        0
 90
        1
  2
AcDbDs::TreatedAsObjectData
280
     1
291
     1
101
ACDSRECORD
 95
        0
 90
        2
  2
AcDbDs::Legacy
280
     1
291
     1
101
ACDSRECORD
  1
AcDbDs::ID
 90
        3
  2
AcDs:Indexable
280
     1
291
     1
101
ACDSRECORD
  1
AcDbDs::ID
 90
        4
  2
AcDbDs::HandleAttribute
280
     7
282
     1
  0
ACDSSCHEMA
 90
        1
  1
AcDbDs::TreatedAsObjectDataSchema
  2
AcDbDs::TreatedAsObjectData
280
     1
 91
        0
  0
ACDSSCHEMA
 90
        2
  1
AcDbDs::LegacySchema
  2
AcDbDs::Legacy
280
     1
 91
        0
  0
ACDSSCHEMA
 90
        3
  1
AcDbDs::IndexedPropertySchema
  2
AcDs:Indexable
280
     1
 91
        0
  0
ACDSSCHEMA
 90
        4
  1
AcDbDs::HandleAttributeSchema
  2
AcDbDs::HandleAttribute
280
     7
 91
        1
284
     1
  0
ACDSRECORD
 90
        0
  2
AcDbDs::ID
280
    10
320
10055
  2
Thumbnail_Data
280
    15
 94
     1608
310
89504E470D0A1A0A0000000D4948445200000100000000BA0803000000768A63F300000300504C5445212830FFFFFF2128300000000000000000000000000000000000000000000000000000330000660000990000CC0000FF0033000033330033660033990033CC0033FF0066000066330066660066990066CC0066FF0099
310
000099330099660099990099CC0099FF00CC0000CC3300CC6600CC9900CCCC00CCFF00FF0000FF3300FF6600FF9900FFCC00FFFF3300003300333300663300993300CC3300FF3333003333333333663333993333CC3333FF3366003366333366663366993366CC3366FF3399003399333399663399993399CC3399FF33CC00
310
33CC3333CC6633CC9933CCCC33CCFF33FF0033FF3333FF6633FF9933FFCC33FFFF6600006600336600666600996600CC6600FF6633006633336633666633996633CC6633FF6666006666336666666666996666CC6666FF6699006699336699666699996699CC6699FF66CC0066CC3366CC6666CC9966CCCC66CCFF66FF0066
310
FF3366FF6666FF9966FFCC66FFFF9900009900339900669900999900CC9900FF9933009933339933669933999933CC9933FF9966009966339966669966999966CC9966FF9999009999339999669999999999CC9999FF99CC0099CC3399CC6699CC9999CCCC99CCFF99FF0099FF3399FF6699FF9999FFCC99FFFFCC0000CC00
310
33CC0066CC0099CC00CCCC00FFCC3300CC3333CC3366CC3399CC33CCCC33FFCC6600CC6633CC6666CC6699CC66CCCC66FFCC9900CC9933CC9966CC9999CC99CCCC99FFCCCC00CCCC33CCCC66CCCC99CCCCCCCCCCFFCCFF00CCFF33CCFF66CCFF99CCFFCCCCFFFFFF0000FF0033FF0066FF0099FF00CCFF00FFFF3300FF3333
310
FF3366FF3399FF33CCFF33FFFF6600FF6633FF6666FF6699FF66CCFF66FFFF9900FF9933FF9966FF9999FF99CCFF99FFFFCC00FFCC33FFCC66FFCC99FFCCCCFFCCFFFFFF00FFFF33FFFF66FFFF99FFFFCCFFFFFF0000000D0D0D1A1A1A2828283535354343435050505D5D5D6B6B6B787878868686939393A1A1A1AEAEAEBB
310
BBBBC9C9C9D6D6D6E4E4E4F1F1F1FFFFFF0000000000000000000000000000000000000000000000000000000000002E4550F1000002D84944415478DAED9D5B9283201045D9FFA27A57FD3F158D0F101515A7BAD3E77C3824A9B1E2E5D217F22029010000000000000000000000000000000000C055C4EDC911A0D373BCCE
310
85FF71E180D6A779F9AAE4C786C08D6EA50620000258AFFD2105C8232DA200EF38A0921262D4002F74527DF663D701FD0570E380CD6C553B309CA672460F1363BD601B691D57B5935B8D443D3275619D83AB3815C04CFFD7576DAAA7021C2F6ECA47C6131A75806C3A49873FC57A37A57CE0CA51376E0418CE685300D908A0
310
A910E0DBDB7997CB2CC179BDD76458809A035437D725DBBC9483C417D743A0A9082E371B04309D02B70458DF6C9EF2388C41D529103E539BD57DA301E647B3D6A4869661E24F00DD3B8C06580ADB71CBA7004347EBB731C5D8D21AE60A3ADD77D2F229407EED850ACDD7AEAB73BA12400F0FCDEED7E45580F00E38AB01FAF3
310
35A0E338C001D4003F0248D60898028B00911C507DA73F520DC85FF99065B11B25053201E62110330562D600D602CC039809B216C001D40052000750039A52E096FBDD3A203FA49B07BF3560BF53F572EB1752E0BAFB3DA7C0DE10D0204380A9305361A6C24C85990ABF5703927901DE4B01D39F96FE0F077811E0B51AE043
310
00528014E00511D602AC05580B9002A40029400A9002A40029400A9002BC39FAE81D528A20459022C8541807500348011C400D20057C08307C652AB20364DE1E224C0D58BE2D986D9D1427051601C6FE9768DF1A5B0B400D5836490A9D022D17D6FE3969DB02AC3EB3520A303B58EB9B2665AD622F3E271B29E5BBA115025C
310
3F59EB2CCB90001507686F010CEF26271501F4F6471A65B7EFD5B2038A5B927A0B6077434569DE53F4A1032C6FA8587340EA5C03364550A20B6077087C36807EB4A3F4F1E306779696AE0E48EE90C702486D0F969802F8F825A1EE43C0D3CF28BD5E03FC8300088000088000C12EB9FC2189E43AD59F0830BD18284924A403
310
A80108000000000000000000000000000000C6F80320B64E1FC7E960530000000049454E44AE426082B6142406B826000000000000000000000000008065FC01AE1A7A91BAB63DCB0000000049454E44AE426082
  0
ENDSEC
  0
EOF
